<svg xmlns="http://www.w3.org/2000/svg">
<defs>
<font horiz-adv-x="596" id="2e490192-e531-4236-9c55-90daaad4a34e">
<font-face font-family="" panose-1="2 11 9 4 2 2 2 2 2 4" ascent="953" descent="-232" units-per-em="1000" alphabetic="0">
</font-face>
<missing-glyph horiz-adv-x="334" />

<glyph unicode="&#xA;" />
<glyph unicode="&#xD;" />
<glyph unicode=" " horiz-adv-x="334" />
<glyph unicode="!" horiz-adv-x="315" d="M261 546L206 257H109L53 546V714H261V546ZM53 198H261V0H53V198Z"  />
<glyph unicode="&quot;" horiz-adv-x="519" d="M77 714H230V335H77V714ZM290 714H443V335H290V714Z"  />
<glyph unicode="#" horiz-adv-x="668" d="M147 185H61L77 302H163L176 398H91L107 515H192L217 696H350L325 515H396L421 696H554L529 515H607L591 398H513L500 302H577L561 185H484L458 0H325L351 185H280L254 0H121L147 185ZM309 398L296 302H367L380 398H309Z"  />
<glyph unicode="$" horiz-adv-x="668" d="M311 -17Q232 -17 177 4T86 61T33 143T14 238H228Q228 225 230 209T241 179T266 154T311 141V282Q291 288 270 293T225 307Q184 321 150 336T92 373T55 424T42 497Q42 558 66 602T129 675T216 717T311 731V811H363V731Q415 731 463 718T547 676T605 603T627 498H436Q434 517 430 530T417 551T395 564T363 573V461Q460 440 517 415T605 359T645 292T654 214Q654 173 639 132T588 58T498 4T363 -17V-116H311V-17ZM363 141Q398 144 422 158T446 202Q446 228 424 241T363 268V141ZM311 573Q284 573 262 565T240 527Q240 487 311 473V573Z"  />
<glyph unicode="%" horiz-adv-x="1019" d="M731 182Q731 165 731 147T736 113T750 89T777 79Q794 79 803 88T817 113T822 146T823 182Q823 199 823 217T818 251T804 275T777 285Q760 285 751 276T737 251T732 218T731 182ZM601 182Q601 224 611 258T643 318T698 358T777 372Q823 372 856 358T910 319T942 259T953 182Q953 140 943 106T911 46T856 6T777 -8Q731 -8 698 6T644 45T612 105T601 182ZM197 514Q197 497 197 479T202 445T216 421T243 411Q260 411 269 420T283 445T288 478T289 514Q289 531 289 549T284 583T270 607T243 617Q226 617 217 608T203 583T198 550T197 514ZM67 514Q67 556 77 590T109 650T164 690T243 704Q289 704 322 690T376 651T408 591T419 514Q419 472 409 438T377 378T322 338T243 324Q197 324 164 338T110 377T78 437T67 514ZM655 722H765L355 -26H245L655 722Z"  />
<glyph unicode="&amp;" horiz-adv-x="741" d="M483 50Q434 12 387 -2T279 -17Q228 -17 184 -1T106 46T55 120T36 215Q36 251 50 281T86 336T137 381T195 416Q170 443 155 475T139 546Q139 589 157 623T205 681T273 718T351 731Q401 731 443 720T515 686T563 629T580 546Q580 516 569 489T540 438T498 395T449 362L504 294Q514 307 521 320T530 348H695Q687 302 667 257T611 175L757 0H523L483 50ZM295 285Q284 279 272 272T250 255T233 233T226 208Q226 179 247 160T294 141Q318 141 339 154T378 184L295 285ZM309 549Q309 530 324 511T353 476Q374 486 392 505T410 550Q410 570 397 584T362 598Q343 598 326 585T309 549Z"  />
<glyph unicode="&apos;" horiz-adv-x="296" d="M72 714H225V335H72V714Z"  />
<glyph unicode="(" horiz-adv-x="315" d="M321 731Q272 611 252 502T232 278Q232 222 237 168T252 60T280 -50T321 -168H150Q122 -111 102 -57T69 52T49 163T42 278Q42 397 68 509T150 731H321Z"  />
<glyph unicode=")" horiz-adv-x="315" d="M-6 -168Q41 -62 62 48T83 278Q83 341 78 397T62 507T34 616T-6 731H167Q221 623 247 509T273 278Q273 215 267 159T247 50T214 -57T167 -168H-6Z"  />
<glyph unicode="*" horiz-adv-x="463" d="M288 582L409 625L447 520L319 479L399 374L309 303L230 417L150 303L60 374L145 479L17 520L53 625L178 582V714H288V582Z"  />
<glyph unicode="+" horiz-adv-x="600" d="M48 329H224V505H377V329H553V176H377V0H224V176H48V329Z"  />
<glyph unicode="&#x2c;" horiz-adv-x="334" d="M63 198H271V41Q271 6 265 -27T244 -88T206 -137T149 -169Q122 -178 100 -179T63 -181V-94Q100 -91 125 -64T152 0H63V198Z"  />
<glyph unicode="-" horiz-adv-x="407" d="M47 349H360V185H47V349Z"  />
<glyph unicode="." horiz-adv-x="334" d="M63 198H271V0H63V198Z"  />
<glyph unicode="/" horiz-adv-x="426" d="M279 731H431L151 -17H-1L279 731Z"  />
<glyph unicode="0" horiz-adv-x="668" d="M38 348Q38 449 66 517T138 626T234 686T333 704Q381 704 433 686T529 627T601 517T630 348Q630 247 602 179T530 70T434 10T334 -8Q287 -8 235 10T139 69T67 179T38 348ZM228 348Q228 321 230 286T242 219T274 167T333 145Q371 145 392 166T424 219T437 285T440 348Q440 375 438 410T425 476T394 529T335 551Q296 551 275 530T243 478T230 412T228 348Z"  />
<glyph unicode="1" horiz-adv-x="668" d="M279 401H116V545Q154 544 190 551T255 576T302 623T323 696H487V0H279V401Z"  />
<glyph unicode="2" horiz-adv-x="668" d="M49 403Q45 475 64 531T122 625T217 684T344 704Q407 704 459 691T549 650T607 582T628 485Q628 418 599 372T525 292T426 229T323 171V170H638V0H35Q32 51 45 94T85 172Q107 202 135 228T196 276T264 319T332 360Q345 368 361 378T392 400T416 427T426 461Q426 509 402 527T342 546Q282 546 259 507T237 403H49Z"  />
<glyph unicode="3" horiz-adv-x="668" d="M54 464Q55 526 78 571T141 646Q181 675 233 689T344 704Q420 704 471 685T554 637T599 578T613 525Q613 470 599 441T567 397T536 380T521 376V374Q521 372 529 370T550 363T578 348T605 321T626 277T635 211Q635 179 622 141T575 70T485 15T343 -8Q265 -8 211 8T123 51T70 108T43 170T34 226T34 264H224Q222 208 251 181Q265 164 286 157T334 150Q377 150 402 167T427 228Q427 251 419 265T398 287T368 297T334 300Q312 300 300 299T276 295V431Q287 430 300 429T334 427Q350 427 366 429T397 438T420 457T429 490Q429 506 421 518T399 537T370 547T338 551Q318 551 300 546T269 529T249 502T242 464H54Z"  />
<glyph unicode="4" horiz-adv-x="668" d="M339 138H30V326L348 696H547V308H641V138H547V0H339V138ZM169 308H339V503L169 308Z"  />
<glyph unicode="5" horiz-adv-x="668" d="M589 526H265L245 434L247 432Q279 456 319 464T399 473Q445 473 486 459T559 417T608 343T626 237Q626 184 606 139T546 62T448 11T314 -8Q250 -8 203 4T122 35T67 79T34 129T18 178T16 219H213Q219 190 241 173Q256 161 276 156T320 150Q364 150 395 175T426 243Q426 289 399 314T326 340Q291 340 266 330T225 295H39L111 696H589V526Z"  />
<glyph unicode="6" horiz-adv-x="668" d="M436 510Q429 532 407 548Q388 560 353 560Q324 560 303 548T267 515T244 469T232 417Q267 449 306 460T393 471Q443 471 486 456T560 411T608 341T626 249Q626 185 605 137T545 57T455 8T340 -8Q261 -8 205 19T112 93T60 199T43 323Q43 405 62 475T120 596T218 675T357 704Q470 704 536 659T619 510H436ZM340 338Q299 338 272 312T245 246Q245 204 271 177T340 150Q385 150 413 178T442 246Q442 283 415 310T340 338Z"  />
<glyph unicode="7" horiz-adv-x="668" d="M601 534Q537 475 496 407T432 270T399 131T391 0H170Q169 0 172 38T189 136T232 270T312 417Q337 454 353 475T379 508T393 522T397 526H64V696H601V534Z"  />
<glyph unicode="8" horiz-adv-x="668" d="M233 493Q233 472 241 458T264 436T296 424T332 420Q350 420 369 423T403 434T427 457T437 493Q437 518 428 533T405 556T371 568T333 571Q313 571 295 568T264 556T242 532T233 493ZM55 513Q55 570 82 607T151 665T241 695T333 704Q405 704 458 689T546 647T598 586T615 513Q615 459 586 419T506 367V365Q535 362 560 350T603 318T632 271T643 212Q643 150 615 108T541 40T441 3T333 -8Q277 -8 222 2T122 38T51 106T24 212Q24 257 38 285T74 329T120 354T163 365V367Q107 382 81 419T55 513ZM222 213Q222 190 232 176T259 152T294 140T333 136Q351 136 371 139T407 152T434 175T445 213Q445 238 436 255T412 283T377 298T335 303Q313 303 293 299T257 285T232 257T222 213Z"  />
<glyph unicode="9" horiz-adv-x="668" d="M231 183Q237 159 262 146Q274 140 286 138T310 136Q344 136 366 150T402 185T423 230T435 276L433 278Q400 249 361 236T277 223Q226 223 183 237T108 280T59 349T41 444Q41 507 64 555T128 637T221 687T334 704Q410 704 465 677T557 604T610 499T627 373Q627 290 608 220T549 100T450 21T310 -8Q262 -8 218 2T139 36T80 95T48 183H231ZM327 546Q307 546 289 539T256 519T234 489T225 450Q225 430 233 413T255 383T287 363T325 356Q345 356 363 362T395 381T417 411T425 449Q425 491 397 518T327 546Z"  />
<glyph unicode=":" horiz-adv-x="334" d="M63 198H271V0H63V198ZM63 519H271V321H63V519Z"  />
<glyph unicode=";" horiz-adv-x="334" d="M271 321H63V519H271V321ZM63 198H271V41Q271 6 265 -27T244 -88T206 -137T149 -169Q122 -178 100 -179T63 -181V-94Q82 -93 98 -85T125 -63T144 -34T152 0H63V198Z"  />
<glyph unicode="&lt;" horiz-adv-x="600" d="M553 352L281 253L553 153V-8L48 189V315L553 513V352Z"  />
<glyph unicode="=" horiz-adv-x="600" d="M553 56H48V209H553V56ZM553 297H48V450H553V297Z"  />
<glyph unicode="&gt;" horiz-adv-x="600" d="M48 153L320 252L48 352V513L553 316V190L48 -8V153Z"  />
<glyph unicode="?" horiz-adv-x="574" d="M170 198H378V0H170V198ZM15 476Q18 523 34 568T83 650T167 708T293 731Q366 731 416 712T497 662T542 595T559 525Q559 479 547 451T516 403T472 372T423 346Q406 337 395 328T378 309T370 286T367 256H182Q181 271 181 294Q181 318 187 343T208 392T252 432Q264 438 280 445T310 460T335 481T345 510Q345 561 287 561Q251 561 236 535T224 476H15Z"  />
<glyph unicode="@" horiz-adv-x="800" d="M575 298Q571 282 571 266Q571 242 585 242Q598 242 613 251T642 279T663 329T672 402Q672 461 653 503T599 574T517 615T414 628Q352 628 300 608T209 551T149 465T127 356Q127 293 150 243T212 158T302 105T410 86Q483 86 529 100T614 143H728Q674 63 597 23T410 -17Q328 -17 258 10T135 87T54 205T24 356Q24 446 54 516T138 633T262 706T417 731Q501 731 567 708T679 645T750 551T775 433Q775 375 760 331T722 253T668 198T609 162T555 143T513 137Q489 137 474 149T456 187H454Q440 165 416 151T353 137Q315 137 284 151T232 190T199 247T187 318Q187 367 202 410T246 486T312 536T395 555Q433 555 463 542T517 496L527 537H622L575 298ZM320 334Q320 305 338 282T386 259Q406 259 423 267T453 289T473 320T481 357Q481 390 461 411T409 433Q391 433 375 425T346 403T327 371T320 334Z"  />
<glyph unicode="A" horiz-adv-x="722" d="M255 714H470L730 0H502L472 102H245L213 0H-8L255 714ZM428 255L364 475H362L293 255H428Z"  />
<glyph unicode="B" horiz-adv-x="741" d="M277 436H393Q428 436 448 448T468 495Q468 522 448 533T393 544H277V436ZM57 714H448Q518 714 562 697T632 652T667 594T676 535Q676 481 652 449T588 395Q612 387 634 373T674 338T701 286T712 217Q712 163 691 123T634 55T554 14T462 0H57V714ZM277 170H406Q423 170 438 173T466 183T485 204T492 238Q492 303 415 303H277V170Z"  />
<glyph unicode="C" horiz-adv-x="759" d="M507 448Q505 458 500 475T482 510T448 540T392 553Q353 553 327 536T286 491T263 428T256 357Q256 321 263 286T285 223T327 178T392 161Q420 161 439 170T472 195T494 233T508 280H724Q724 226 703 173T640 78T537 9T398 -17Q311 -17 244 12T131 91T60 209T36 357Q36 441 61 510T134 628T248 704T398 731Q546 730 626 657T721 448H507Z"  />
<glyph unicode="D" horiz-adv-x="778" d="M277 183H363Q414 183 445 201T492 247T514 305T520 361Q520 378 516 406T494 463T442 511T347 531H277V183ZM57 714H418Q507 714 568 684T668 604T723 490T740 358Q740 276 718 210T651 97T537 25T375 0H57V714Z"  />
<glyph unicode="E" horiz-adv-x="704" d="M57 714H648V531H277V442H614V272H277V183H659V0H57V714Z"  />
<glyph unicode="F" horiz-adv-x="630" d="M57 714H609V531H277V442H562V272H277V0H57V714Z"  />
<glyph unicode="G" horiz-adv-x="778" d="M580 73Q543 25 490 4T377 -17Q298 -17 235 12T128 90T60 207T36 350Q36 452 68 524T152 642T265 709T388 731Q525 731 609 661T717 464H506Q500 503 471 528T402 553Q364 553 339 541T297 510T273 468T261 421T257 378T256 345Q256 320 262 288T286 228T335 181T417 161Q436 161 454 166T489 180T516 205T531 240H434V393H726V0H587L580 73Z"  />
<glyph unicode="H" horiz-adv-x="759" d="M57 714H277V466H483V714H703V0H483V283H277V0H57V714Z"  />
<glyph unicode="I" horiz-adv-x="333" d="M57 714H277V0H57V714Z"  />
<glyph unicode="J" horiz-adv-x="611" d="M555 257Q555 183 539 131T489 46T405 -2T287 -17Q219 -17 170 1T88 53T41 134T25 240V300H223V259Q223 238 224 219T230 186T248 162T282 153Q303 153 314 164T329 191T334 224T335 254V714H555V257Z"  />
<glyph unicode="K" horiz-adv-x="778" d="M63 714H283V468H285L481 714H752L493 435L794 0H520L344 278L283 211V0H63V714Z"  />
<glyph unicode="L" horiz-adv-x="630" d="M57 714H277V183H593V0H57V714Z"  />
<glyph unicode="M" horiz-adv-x="944" d="M56 714H369L471 294H473L575 714H888V0H680V458H678L554 0H390L266 458H264V0H56V714Z"  />
<glyph unicode="N" horiz-adv-x="759" d="M58 714H283L491 332H493V714H701V0H487L268 390H266V0H58V714Z"  />
<glyph unicode="O" horiz-adv-x="796" d="M256 357Q256 297 270 259T306 200T352 170T398 161Q419 161 444 169T490 199T525 259T540 357Q540 417 526 455T490 514T444 544T398 553Q377 553 352 545T306 515T271 455T256 357ZM36 357Q36 439 62 507T135 625T250 703T398 731Q479 731 546 703T660 626T734 508T760 357Q760 275 734 207T661 89T546 11T398 -17Q317 -17 250 11T136 88T62 206T36 357Z"  />
<glyph unicode="P" horiz-adv-x="704" d="M277 386H362Q383 386 404 387T441 396T468 419T479 462Q479 486 471 500T448 521T414 529T375 531H277V386ZM57 714H425Q498 714 548 690T629 630T673 551T687 470Q687 405 667 358T609 279T520 232T407 216H277V0H57V714Z"  />
<glyph unicode="Q" horiz-adv-x="796" d="M663 -78L567 21Q537 2 493 -7T398 -17Q317 -17 250 11T136 88T62 206T36 357Q36 439 62 507T135 625T250 703T398 731Q479 731 546 703T660 626T734 508T760 357Q760 282 739 219T677 107L762 20L663 -78ZM466 323L526 262Q540 301 540 357Q540 417 526 455T490 514T444 544T398 553Q377 553 352 545T306 515T271 455T256 357Q256 297 270 259T306 200T352 170T398 161Q412 161 427 165L367 227L466 323Z"  />
<glyph unicode="R" horiz-adv-x="741" d="M277 402H392Q407 402 424 404T456 413T479 435T489 473Q489 507 466 525T380 544H277V402ZM57 714H476Q523 714 565 701T639 663T690 599T709 510Q709 482 703 455T683 403T650 360T602 331Q647 314 674 267T707 153Q708 140 709 119T712 76T719 33T731 0H511Q503 27 499 54T493 110Q491 135 488 160T474 205T446 237T394 249H277V0H57V714Z"  />
<glyph unicode="S" horiz-adv-x="667" d="M232 240Q232 214 240 193Q252 161 283 151T345 141Q358 141 374 143T404 153T427 173T436 206Q436 220 429 229T405 247T358 265T282 288Q240 300 197 313T119 349T62 406T40 495Q40 557 64 601T129 675T221 717T328 731Q386 731 439 719T533 680T599 608T626 498H418Q421 518 414 532T392 555Q378 565 361 569T327 573Q316 573 302 571T276 564T256 550T248 525Q249 506 267 494T315 472T380 454T455 435Q493 424 529 409T593 371T639 313T656 229Q656 159 627 112T551 37T445 -4T326 -17Q306 -17 275 -14T209 -1T139 26T76 72T30 142T12 240H232Z"  />
<glyph unicode="T" horiz-adv-x="668" d="M224 531H24V714H644V531H444V0H224V531Z"  />
<glyph unicode="U" horiz-adv-x="759" d="M705 276Q705 127 625 55T380 -17Q215 -17 135 55T54 276V714H274V325Q274 298 275 269T287 216T319 177T381 161Q420 161 441 176T472 216T483 269T485 325V714H705V276Z"  />
<glyph unicode="V" horiz-adv-x="648" d="M442 0H196L-17 714H205L322 281H324L439 714H665L442 0Z"  />
<glyph unicode="W" horiz-adv-x="963" d="M770 0H556L479 435H477L402 0H187L-7 714H209L296 273H298L384 714H578L662 267H664L753 714H970L770 0Z"  />
<glyph unicode="X" horiz-adv-x="741" d="M246 380L11 714H269L377 520L483 714H727L498 378L753 0H488L366 213L240 0H-12L246 380Z"  />
<glyph unicode="Y" horiz-adv-x="667" d="M221 263L-30 714H213L332 451L456 714H697L441 263V0H221V263Z"  />
<glyph unicode="Z" horiz-adv-x="685" d="M24 172L356 531H43V714H646V554L311 183H662V0H24V172Z"  />
<glyph unicode="[" horiz-adv-x="407" d="M38 731H370V578H216V-15H370V-168H38V731Z"  />
<glyph unicode="\" horiz-adv-x="426" d="M427 -17H275L-5 731H147L427 -17Z"  />
<glyph unicode="]" horiz-adv-x="407" d="M370 -168H38V-15H192V578H38V731H370V-168Z"  />
<glyph unicode="^" horiz-adv-x="600" d="M239 696H361L535 331H382L300 520L218 331H65L239 696Z"  />
<glyph unicode="_" horiz-adv-x="500" d="M0 -75H500V-125H0V-75Z"  />
<glyph unicode="`" horiz-adv-x="278" d="M-66 721H142L242 572H105L-66 721Z"  />
<glyph unicode="a" horiz-adv-x="611" d="M560 116Q560 87 563 56T584 0H382Q378 11 376 24T375 49H373Q341 13 298 0T206 -13Q168 -13 135 -4T77 24T38 73T23 144Q23 185 37 212T76 258T132 287T195 303T259 312T316 321Q336 325 353 333T370 367Q370 393 350 404T305 415Q282 415 268 410T246 397T234 380T231 362H47Q49 417 74 450T137 502T221 526T314 532Q407 532 457 515T530 468T556 403T560 329V116ZM370 233Q352 224 332 219T292 208Q259 200 242 189T225 152Q225 134 242 119T287 104Q321 104 344 124T370 185V233Z"  />
<glyph unicode="b" horiz-adv-x="648" d="M54 714H252V462H254Q277 495 314 513T396 532Q461 532 504 507T572 443T607 356T617 262Q617 213 604 164T563 76T495 12T399 -13Q363 -13 338 -7T296 10T268 32T247 57H245V0H54V714ZM419 260Q419 283 416 306T402 347T376 376T332 388Q305 388 289 377T262 347T249 306T245 260Q245 237 248 214T262 173T288 143T332 131Q359 131 375 142T402 172T415 214T419 260Z"  />
<glyph unicode="c" horiz-adv-x="611" d="M389 322Q386 355 367 371Q348 388 317 388Q288 388 271 377T245 347T233 306T230 259Q230 235 233 212T245 171T271 142T317 131Q349 131 370 153T394 207H583Q576 154 553 113T494 44T412 2T313 -13Q254 -13 203 6T114 61T54 147T32 259Q32 320 54 370T114 457T203 512T313 532Q364 532 410 520T491 481T549 416T577 322H389Z"  />
<glyph unicode="d" horiz-adv-x="648" d="M403 260Q403 283 400 306T386 347T360 376T316 388Q289 388 273 377T246 347T233 306T229 260Q229 237 232 214T246 173T272 143T316 131Q343 131 359 142T386 172T399 214T403 260ZM594 0H403V57H401Q392 45 381 33T352 10T310 -6T249 -13Q194 -13 153 11T85 75T45 164T31 262Q31 308 41 356T76 443T144 507T252 532Q297 532 334 514T394 462H396V714H594V0Z"  />
<glyph unicode="e" horiz-adv-x="630" d="M221 215Q225 170 250 142T322 114Q346 114 369 123T405 151H590Q575 109 548 78T486 27T409 -3T323 -13Q261 -13 208 5T115 57T54 142T32 258Q32 315 51 364T107 451T193 510T306 532Q383 532 439 511T531 450T584 350T601 215H221ZM411 318Q411 354 387 379T324 405Q279 405 254 383T222 318H411Z"  />
<glyph unicode="f" horiz-adv-x="389" d="M87 397H6V519H87Q85 557 92 596T128 665Q160 697 200 705T301 714Q324 714 345 713T390 710V574Q378 576 366 578T342 581Q306 581 293 568T281 519H385V397H285V0H87V397Z"  />
<glyph unicode="g" horiz-adv-x="630" d="M583 67Q583 41 580 13T567 -43T539 -96T491 -140T418 -170T313 -181Q267 -181 222 -174T139 -147T75 -95T42 -8H238Q240 -12 243 -16T249 -26Q258 -40 273 -52T307 -64Q331 -64 346 -52T370 -21T382 18T385 55V103H383Q359 68 324 50T244 31Q187 31 145 51T76 105T35 186T22 284Q22 335 36 380T79 458T149 512T247 532Q291 532 328 514T383 456H385V519H583V67ZM220 285Q220 263 224 241T238 200T265 170T309 158Q336 158 352 170T377 200T387 241T390 286Q390 329 369 358T304 388Q283 388 267 380T241 357T225 325T220 285Z"  />
<glyph unicode="h" horiz-adv-x="648" d="M54 714H252V463H254Q279 493 316 512T416 532Q451 532 483 521T540 489T579 434T594 356V0H396V272Q396 294 394 313T385 345T366 366T331 374Q318 374 304 370T279 355T260 325T252 274V0H54V714Z"  />
<glyph unicode="i" horiz-adv-x="315" d="M256 575H58V714H256V575ZM58 519H256V0H58V519Z"  />
<glyph unicode="j" horiz-adv-x="315" d="M256 575H58V714H256V575ZM-30 -10H3Q33 -10 45 3T58 54V519H256V35Q256 -27 249 -67T210 -133Q196 -145 178 -152T141 -162T101 -167T63 -168H-30V-10Z"  />
<glyph unicode="k" horiz-adv-x="611" d="M58 714H256V369L382 519H606L421 323L635 0H397L291 188L256 150V0H58V714Z"  />
<glyph unicode="l" horiz-adv-x="315" d="M58 714H256V0H58V714Z"  />
<glyph unicode="m" horiz-adv-x="963" d="M53 519H244V450H246Q276 495 319 513T416 532Q458 532 498 511T556 451Q559 453 569 466T599 493T652 520T733 532Q783 532 817 517T872 476T902 419T911 356V0H713V281Q713 299 712 316T703 346T683 366T648 374Q610 374 596 348T581 281V0H383V281Q383 299 382 316T373 346T353 366T318 374Q280 374 266 348T251 281V0H53V519Z"  />
<glyph unicode="n" horiz-adv-x="648" d="M54 519H245V453H247Q275 492 315 512T416 532Q451 532 483 521T540 489T579 434T594 356V0H396V272Q396 294 394 313T385 345T366 366T331 374Q318 374 304 370T279 355T260 325T252 274V0H54V519Z"  />
<glyph unicode="o" horiz-adv-x="630" d="M400 260Q400 281 398 303T386 344T360 375T315 388Q287 388 270 376T244 345T233 304T230 260Q230 239 232 217T244 175T270 144T315 131Q343 131 360 143T386 175T397 216T400 260ZM598 260Q598 206 581 157T530 70T442 10T315 -13Q242 -13 189 9T101 69T49 156T32 260Q32 314 49 363T100 449T188 509T315 532Q388 532 441 510T529 450T581 363T598 260Z"  />
<glyph unicode="p" horiz-adv-x="648" d="M54 519H245V462H247Q256 474 267 486T296 509T338 525T399 532Q454 532 495 508T563 444T603 355T617 257Q617 211 607 163T572 76T504 12T396 -13Q351 -13 314 5T254 57H252V-168H54V519ZM245 259Q245 236 248 213T262 172T288 143T332 131Q359 131 375 142T402 172T415 213T419 259Q419 282 416 305T402 346T376 376T332 388Q305 388 289 377T262 347T249 305T245 259Z"  />
<glyph unicode="q" horiz-adv-x="648" d="M403 259Q403 284 400 307T387 349T360 377T316 388Q289 388 273 377T246 347T233 305T229 259Q229 236 232 213T246 172T272 143T316 131Q343 131 359 142T386 172T399 213T403 259ZM594 -168H396V57H394Q371 24 334 6T252 -13Q187 -13 144 12T76 76T41 163T31 257Q31 306 44 355T85 443T153 507T249 532Q285 532 310 526T352 509T380 487T401 462H403V519H594V-168Z"  />
<glyph unicode="r" horiz-adv-x="444" d="M54 519H244V436H246Q270 483 304 507T392 532Q420 532 450 524V349Q435 354 419 358T372 362Q313 362 283 326T252 205V0H54V519Z"  />
<glyph unicode="s" horiz-adv-x="574" d="M354 368Q353 381 347 390T331 407Q313 422 287 422Q266 422 247 415T227 382Q227 371 234 365T250 355Q262 350 281 346T324 338T373 329T424 315Q449 307 471 296T511 267T538 226T548 170Q548 116 525 81T464 25T379 -4T284 -13Q238 -13 193 -4T110 28T50 85T25 170H214Q215 144 238 124Q255 109 291 109Q301 109 312 111T334 117T351 130T358 149Q358 160 354 168T338 182T305 193T249 204Q136 223 87 261T37 367Q37 416 60 448T120 498T200 524T282 532Q324 532 368 525T448 500T508 450T534 368H354Z"  />
<glyph unicode="t" horiz-adv-x="407" d="M292 519H398V397H292V216Q292 180 303 164T353 147Q375 147 398 150V0Q368 0 336 -3T271 -6Q239 -6 208 -2T151 18T110 65T94 149V397H6V519H94V677H292V519Z"  />
<glyph unicode="u" horiz-adv-x="648" d="M594 0H403V66H401Q373 27 333 7T232 -13Q197 -13 165 -2T108 30T69 85T54 163V519H252V247Q252 224 254 206T262 174T282 153T317 145Q330 145 344 149T369 164T388 194T396 245V519H594V0Z"  />
<glyph unicode="v" horiz-adv-x="556" d="M394 0H160L-10 519H199L280 203H282L364 519H566L394 0Z"  />
<glyph unicode="w" horiz-adv-x="870" d="M713 0H510L435 319H433L356 0H153L-9 519H197L274 198H276L342 519H527L596 198H600L672 519H878L713 0Z"  />
<glyph unicode="x" horiz-adv-x="556" d="M167 273L4 519H222L279 416L337 519H549L386 273L570 0H352L276 127L203 0H-14L167 273Z"  />
<glyph unicode="y" horiz-adv-x="556" d="M399 40Q387 5 372 -35T334 -104Q314 -128 290 -141T239 -160T183 -167T125 -168H35V-10H81Q96 -10 113 -10Q130 -10 141 -5Q150 0 155 8T160 34Q160 40 155 58T140 102T121 155T101 208T84 253T73 280L-15 519H197L280 221H282L366 519H571L399 40Z"  />
<glyph unicode="z" horiz-adv-x="556" d="M17 153L260 375H39V519H514V367L277 144H535V0H17V153Z"  />
<glyph unicode="{" horiz-adv-x="407" d="M369 578H334Q316 578 306 572T291 557T285 537T283 517V372Q283 345 271 328T241 301T202 287T164 282V280Q181 279 202 276T241 263T271 234T283 182V46Q283 37 284 26T292 6T309 -9T341 -15H369V-168H255Q232 -168 207 -161T161 -138T127 -98T113 -40V140Q113 162 103 174T80 194T52 203T29 205V358Q38 358 52 359T79 367T103 384T113 415V603Q113 636 126 660T161 700T207 723T255 731H369V578Z"  />
<glyph unicode="|" horiz-adv-x="222" d="M35 786H188V-214H35V786Z"  />
<glyph unicode="}" horiz-adv-x="407" d="M38 -15H66Q86 -15 97 -9T115 6T122 26T124 46V191Q124 218 136 235T166 262T205 276T243 281V283Q226 284 205 287T166 299T136 328T124 381V517Q124 526 123 537T115 557T98 572T66 578H38V731H152Q175 731 200 724T246 701T280 661T294 603V423Q294 401 303 388T326 369T354 360T378 358V205Q369 205 355 204T327 196T304 179T294 148V-40Q294 -73 281 -97T246 -137T200 -160T152 -168H38V-15Z"  />
<glyph unicode="~" horiz-adv-x="600" d="M531 229Q520 213 508 198T481 170T448 151T406 143Q378 143 354 152T304 176Q280 190 252 200T189 210Q156 210 137 188T105 139L69 277Q77 293 88 308T115 336T149 355T194 363Q220 363 248 354T305 331Q333 319 360 308T407 296Q437 296 457 318T495 367L531 229Z"  />
<glyph unicode="&#xA0;" horiz-adv-x="334" />
<glyph unicode="&#xA1;" horiz-adv-x="315" d="M262 350H54V548H262V350ZM54 2L110 291H207L262 2V-166H54V2Z"  />
<glyph unicode="&#xA2;" horiz-adv-x="668" d="M317 -13Q258 -13 210 7T128 65T74 152T55 263Q55 320 74 369T127 454T210 511T317 532V612H369V532Q481 532 536 477T603 322H422Q420 351 406 366T369 387V135Q394 148 409 164T426 207H608Q602 158 581 118T529 48T456 3T369 -13V-109H317V-13ZM317 387Q275 379 260 346T245 264Q245 242 247 221T258 183T281 153T317 135V387Z"  />
<glyph unicode="&#xA3;" horiz-adv-x="668" d="M426 484Q426 496 423 511T412 539Q404 551 391 562T358 573Q323 573 309 557T294 513Q294 501 298 488T308 462T320 436T331 412H440V285H365Q373 250 357 215T311 159L313 157Q333 168 356 167T403 160Q427 155 451 148T496 141Q511 141 522 148T542 165T557 186T569 206L648 64Q613 25 569 4T474 -17Q438 -17 410 -10T354 6Q328 12 301 17T242 22Q212 22 187 11T137 -17L58 95Q79 109 99 124T134 158T158 198T168 248Q168 270 162 285H45V412H116Q103 429 95 453T86 507Q86 546 101 585T148 657T230 710T352 731Q476 731 544 669T619 484H426Z"  />
<glyph unicode="&#xA4;" horiz-adv-x="668" d="M336 455Q317 455 298 449T264 429T239 395T229 348Q229 321 238 301T263 268T298 248T336 241Q355 241 374 247T408 267T433 301T443 348Q443 375 434 395T409 428T374 448T336 455ZM469 139Q446 118 412 108T336 97Q294 97 259 107T200 137L140 79L65 154L125 212Q111 232 98 269T85 348Q84 390 97 427T125 483L65 540L143 616L200 560Q218 575 256 587T336 599Q377 599 413 587T469 560L527 616L603 541L545 483Q561 464 574 427T587 348Q587 308 575 270T545 212L603 154L528 79L469 139Z"  />
<glyph unicode="&#xA5;" horiz-adv-x="668" d="M235 107H74V229H235V272L214 315H74V437H147L-3 714H222L334 437L446 714H671L521 437H594V315H454L433 272V229H594V107H433V0H235V107Z"  />
<glyph unicode="&#xA6;" horiz-adv-x="222" d="M35 661H188V411H35V661ZM35 161H188V-89H35V161Z"  />
<glyph unicode="&#xA7;" horiz-adv-x="667" d="M411 530Q405 587 346 587Q326 587 310 577T293 545Q293 530 309 518T347 496T394 477T437 461Q462 452 496 439T561 406T614 354T636 278Q636 237 625 209T597 164T562 139T530 127Q555 107 568 80T582 20Q582 -33 561 -70T504 -132T424 -168T333 -180Q282 -180 236 -169T156 -132T103 -66T84 32H254Q259 -5 279 -20T331 -36Q340 -36 351 -34T371 -26T386 -12T392 8Q392 37 375 49T334 71Q297 85 261 100T188 130Q160 142 132 156T82 190T45 236T31 297Q31 358 59 394T143 453Q123 472 113 497T103 548Q103 596 124 630T178 687T253 720T337 731Q386 731 430 719T507 682T560 620T583 530H411ZM201 326Q201 309 219 296T262 271T317 249T367 230Q371 229 380 226T399 218T418 211T430 208Q444 209 455 218T466 241Q466 263 456 270T427 288Q387 306 348 321T269 352Q261 355 252 358T235 363Q223 362 212 351T201 326Z"  />
<glyph unicode="&#xA8;" horiz-adv-x="278" d="M-59 711H111V581H-59V711ZM168 711H338V581H168V711Z"  />
<glyph unicode="&#xA9;" horiz-adv-x="800" d="M150 357Q150 304 169 258T222 176T301 121T400 100Q453 100 498 120T578 176T631 257T650 357Q650 410 631 456T578 538T499 593T400 614Q347 614 302 594T222 538T169 457T150 357ZM26 357Q26 435 55 503T135 621T254 701T400 731Q478 731 546 702T664 622T744 503T774 357Q774 279 745 211T665 93T546 13T400 -17Q322 -17 254 12T136 92T56 211T26 357ZM583 309Q577 268 561 238T521 188T468 158T405 148Q360 148 323 164T259 208T219 274T204 356Q204 401 218 439T257 505T320 549T403 565Q471 565 518 527T579 410H483Q471 462 406 462Q362 462 338 434T314 358Q314 310 340 281T405 251Q436 251 457 263T483 309H583Z"  />
<glyph unicode="&#xAA;" horiz-adv-x="367" d="M233 525Q210 514 182 510Q166 507 153 500T139 476Q139 461 149 453T175 445Q227 445 233 492V525ZM357 438Q357 418 362 404T371 383H240Q238 391 237 398T235 414H234Q214 391 186 383T126 375Q77 375 43 398T9 471Q9 508 27 527T74 556T135 569T197 578Q211 580 222 585T233 605Q233 622 220 628T190 634Q172 634 158 626T143 601H23Q24 634 40 654T80 686T135 700T196 704Q222 704 250 699T302 681T341 644T357 583V438Z"  />
<glyph unicode="&#xAB;" horiz-adv-x="444" d="M239 177V354L402 483V329L324 265L402 205V48L239 177ZM42 177V354L205 483V329L127 265L205 205V48L42 177Z"  />
<glyph unicode="&#xAC;" horiz-adv-x="600" d="M553 108H400V297H48V450H553V108Z"  />
<glyph unicode="&#xAD;" horiz-adv-x="407" d="M47 349H360V185H47V349Z"  />
<glyph unicode="&#xAE;" horiz-adv-x="800" d="M342 388H417Q443 387 456 398T470 437Q470 451 463 459T444 470T421 475T397 476H342V388ZM252 546H399Q439 546 470 541T522 522T555 485T566 427Q566 372 537 349T466 324L551 167H454L378 318H342V167H252V546ZM150 357Q150 304 169 258T222 176T301 121T400 100Q453 100 498 120T578 176T631 257T650 357Q650 410 631 456T578 538T499 593T400 614Q347 614 302 594T222 538T169 457T150 357ZM26 357Q26 435 55 503T135 621T254 701T400 731Q478 731 546 702T664 622T744 503T774 357Q774 279 745 211T665 93T546 13T400 -17Q322 -17 254 12T136 92T56 211T26 357Z"  />
<glyph unicode="&#xAF;" horiz-adv-x="278" d="M-30 692H309V601H-30V692Z"  />
<glyph unicode="&#xB0;" horiz-adv-x="400" d="M129 555Q129 524 150 504T200 484Q229 484 250 504T271 555Q271 586 250 606T200 626Q171 626 150 606T129 555ZM51 555Q51 587 62 614T93 662T140 693T200 704Q232 704 259 693T307 662T338 615T349 555Q349 523 338 496T307 448T260 417T200 406Q168 406 141 417T93 448T62 495T51 555Z"  />
<glyph unicode="&#xB1;" horiz-adv-x="600" d="M48 153H553V0H48V153ZM48 424H224V505H377V424H553V271H377V190H224V271H48V424Z"  />
<glyph unicode="&#xB2;" horiz-adv-x="400" d="M13 523Q9 609 61 657Q111 704 205 704Q293 704 342 673T391 573Q391 539 376 514T339 469T291 437T243 414T206 398T191 385H396V282H4Q1 325 18 357T64 413T128 458T197 498Q206 503 216 508T235 521T249 537T255 557Q255 580 241 595T204 610Q184 610 171 603T150 583T138 555T135 523H13Z"  />
<glyph unicode="&#xB3;" horiz-adv-x="400" d="M23 559Q24 596 38 623T79 668Q104 686 137 695T207 704Q291 704 340 672T389 586Q389 562 382 547T365 523T346 510T331 504V502Q363 491 382 468T401 396Q401 373 391 351T357 312T296 285T205 274Q151 274 114 286T53 320T20 372T10 438H134Q134 408 148 391Q157 378 170 373T203 368Q226 368 245 379T265 417Q265 430 259 438T244 451T224 456T203 458Q190 458 182 458Q175 458 167 457V537Q175 536 182 536Q190 536 199 536Q210 536 221 538T243 543T259 553T265 569Q265 589 249 599T207 610Q181 610 164 596T147 559H23Z"  />
<glyph unicode="&#xB4;" horiz-adv-x="278" d="M172 572H36L135 721H344L172 572Z"  />
<glyph unicode="&#xB5;" horiz-adv-x="648" d="M594 0H403V66H401Q346 -10 252 -13V-168H54V519H252V247Q252 224 254 206T262 174T282 153T317 145Q330 145 344 149T369 164T388 194T396 245V519H594V0Z"  />
<glyph unicode="&#xB6;" horiz-adv-x="620" d="M241 365Q132 365 75 410T18 536Q18 590 37 624T89 679T167 706T264 714H578V-174H442V611H377V-174H241V365Z"  />
<glyph unicode="&#xB7;" horiz-adv-x="334" d="M47 237Q47 262 56 283T82 321T120 347T167 357Q192 357 213 348T251 322T277 284T287 237Q287 212 278 191T252 153T214 127T167 117Q142 117 121 126T83 152T57 190T47 237Z"  />
<glyph unicode="&#xB8;" horiz-adv-x="278" d="M22 -158Q44 -168 64 -173T108 -178Q128 -178 144 -170T160 -141Q160 -125 147 -116T117 -106Q98 -106 78 -116L52 -92L108 0H166L126 -62L128 -64Q139 -59 170 -59Q188 -59 207 -64T240 -79T263 -107T270 -148Q267 -187 232 -210T139 -233Q97 -233 67 -227T1 -204L22 -158Z"  />
<glyph unicode="&#xB9;" horiz-adv-x="400" d="M157 516H51V603Q76 603 99 608T141 624T172 652T186 696H293V282H157V516Z"  />
<glyph unicode="&#xBA;" horiz-adv-x="378" d="M146 541Q146 528 147 514T154 489T169 470T195 462Q211 462 220 469T235 488T242 514T244 541Q244 553 243 566T236 591T221 610T195 617Q179 617 170 610T155 592T148 567T146 541ZM10 541Q10 573 21 602T55 654T112 690T195 704Q243 704 277 691T335 655T369 603T380 541Q380 508 369 478T335 425T278 389T195 375Q147 375 113 388T55 425T21 478T10 541Z"  />
<glyph unicode="&#xBB;" horiz-adv-x="444" d="M402 354V177L239 48V205L317 265L239 326V483L402 354ZM205 354V177L42 48V205L120 265L42 326V483L205 354Z"  />
<glyph unicode="&#xBC;" horiz-adv-x="1000" d="M700 302L590 186H700V302ZM700 83H500V196L706 414H836V186H897V83H836V0H700V83ZM174 516H68V603Q93 603 116 608T158 624T189 652T203 696H310V282H174V516ZM593 722H703L315 -26H205L593 722Z"  />
<glyph unicode="&#xBD;" horiz-adv-x="1000" d="M174 516H68V603Q91 603 114 607T157 622T188 651T203 696H310V282H174V516ZM540 0Q537 43 554 75T600 131T664 176T733 216Q742 221 752 226T771 239T785 255T791 275Q791 298 777 313T740 328Q720 328 707 321T686 301T674 273T671 241H549Q545 327 597 375Q647 422 741 422Q829 422 878 391T927 291Q927 257 912 232T875 187T827 155T779 132T742 116T727 103H932V0H540ZM593 722H703L314 -26H205L593 722Z"  />
<glyph unicode="&#xBE;" horiz-adv-x="1000" d="M42 559Q43 596 57 623T98 668Q123 686 156 695T226 704Q310 704 359 672T408 586Q408 562 401 547T384 523T365 510T350 504V502Q382 491 401 468T420 396Q420 373 410 351T376 312T315 285T224 274Q170 274 133 286T72 320T39 372T29 438H153Q153 408 167 391Q176 378 189 373T222 368Q245 368 264 379T284 417Q284 430 278 438T263 451T243 456T222 458Q209 458 201 458Q194 458 186 457V537Q194 536 201 536Q209 536 218 536Q229 536 240 538T262 543T278 553T284 569Q284 589 268 599T226 610Q200 610 183 596T166 559H42ZM669 722H779L390 -26H281L669 722ZM773 186V302L663 186H773ZM773 83H573V196L779 414H909V186H970V83H909V0H773V83Z"  />
<glyph unicode="&#xBF;" horiz-adv-x="574" d="M404 350H196V548H404V350ZM559 74Q556 11 535 -36T478 -116T392 -164T282 -181Q234 -181 187 -169T101 -131T39 -66T15 28Q15 63 23 87T44 128T75 156T111 176Q129 185 146 194T176 216T198 246T207 290H393Q393 244 386 213T368 162T341 129T311 109Q296 100 281 95T255 82T236 64T229 35Q229 14 244 2T281 -11Q325 -11 338 12T351 74H559Z"  />
<glyph unicode="&#xC0;" horiz-adv-x="722" d="M255 714H470L730 0H502L472 102H245L213 0H-8L255 714ZM428 255L364 475H362L293 255H428ZM145 915H353L453 766H316L145 915Z"  />
<glyph unicode="&#xC1;" horiz-adv-x="722" d="M255 714H470L730 0H502L472 102H245L213 0H-8L255 714ZM428 255L364 475H362L293 255H428ZM406 766H270L369 915H578L406 766Z"  />
<glyph unicode="&#xC2;" horiz-adv-x="722" d="M255 714H470L730 0H502L472 102H245L213 0H-8L255 714ZM428 255L364 475H362L293 255H428ZM282 915H446L568 766H421L364 842L308 766H161L282 915Z"  />
<glyph unicode="&#xC3;" horiz-adv-x="722" d="M255 714H470L730 0H502L472 102H245L213 0H-8L255 714ZM428 255L364 475H362L293 255H428ZM167 768Q167 790 172 815T190 861T225 896T279 910Q304 910 328 904T372 890Q392 882 407 876T431 870Q447 870 459 878T476 913H558Q557 884 549 859T527 815T491 785T442 774Q417 774 395 779T353 793Q334 800 318 805T287 811Q270 811 260 797T246 768H167Z"  />
<glyph unicode="&#xC4;" horiz-adv-x="722" d="M255 714H470L730 0H502L472 102H245L213 0H-8L255 714ZM428 255L364 475H362L293 255H428ZM164 905H334V775H164V905ZM391 905H561V775H391V905Z"  />
<glyph unicode="&#xC5;" horiz-adv-x="722" d="M255 714H470L730 0H502L472 102H245L213 0H-8L255 714ZM428 255L364 475H362L293 255H428ZM310 846Q310 822 325 808T363 793Q386 793 400 808T415 846Q415 869 400 883T363 898Q341 898 326 884T310 846ZM250 846Q250 869 258 890T282 926T319 949T363 957Q386 957 407 949T443 926T466 890T475 846Q475 823 467 803T443 767T407 744T363 736Q340 736 319 744T283 767T259 802T250 846Z"  />
<glyph unicode="&#xC6;" horiz-adv-x="1056" d="M309 714H999V531H675V442H977V272H675V183H1011V0H467V105H256L213 0H-16L309 714ZM467 531H438L315 249H467V531Z"  />
<glyph unicode="&#xC7;" horiz-adv-x="759" d="M257 -158Q279 -168 299 -173T343 -178Q363 -178 379 -170T395 -141Q395 -125 382 -116T352 -106Q333 -106 313 -116L287 -92L335 -13Q285 -6 244 12Q177 41 131 91T60 209T36 357Q36 441 61 510T134 628T248 704T398 731Q546 730 626 657T721 448H507Q505 458 500 475T482 510T448 540T392 553Q353 553 327 536T286 491T263 428T256 357Q256 321 263 286T285 223T327 178T392 161Q420 161 439 170T472 195T494 233T508 280H724Q724 226 703 173T640 78T537 9T398 -17H390L361 -62L363 -64Q374 -59 405 -59Q423 -59 442 -64T475 -79T498 -107T505 -148Q502 -187 467 -210T374 -233Q332 -233 302 -227T236 -204L257 -158Z"  />
<glyph unicode="&#xC8;" horiz-adv-x="704" d="M57 714H648V531H277V442H614V272H277V183H659V0H57V714ZM165 915H373L473 766H336L165 915Z"  />
<glyph unicode="&#xC9;" horiz-adv-x="704" d="M57 714H648V531H277V442H614V272H277V183H659V0H57V714ZM398 766H262L361 915H570L398 766Z"  />
<glyph unicode="&#xCA;" horiz-adv-x="704" d="M57 714H648V531H277V442H614V272H277V183H659V0H57V714ZM268 915H432L554 766H407L350 842L294 766H147L268 915Z"  />
<glyph unicode="&#xCB;" horiz-adv-x="704" d="M57 714H648V531H277V442H614V272H277V183H659V0H57V714ZM158 905H328V775H158V905ZM385 905H555V775H385V905Z"  />
<glyph unicode="&#xCC;" horiz-adv-x="333" d="M57 714H277V0H57V714ZM-31 915H177L277 766H140L-31 915Z"  />
<glyph unicode="&#xCD;" horiz-adv-x="333" d="M57 714H277V0H57V714ZM194 766H58L157 915H366L194 766Z"  />
<glyph unicode="&#xCE;" horiz-adv-x="333" d="M57 714H277V0H57V714ZM86 915H250L372 766H225L168 842L112 766H-35L86 915Z"  />
<glyph unicode="&#xCF;" horiz-adv-x="333" d="M57 714H277V0H57V714ZM-31 905H139V775H-31V905ZM196 905H366V775H196V905Z"  />
<glyph unicode="&#xD0;" horiz-adv-x="778" d="M277 432H413V310H277V183H363Q414 183 445 201T492 247T514 305T520 361Q520 378 516 406T494 463T442 511T347 531H277V432ZM57 310H1V432H57V714H418Q507 714 568 684T668 603T723 489T740 357Q740 275 718 209T651 97T537 25T375 0H57V310Z"  />
<glyph unicode="&#xD1;" horiz-adv-x="759" d="M58 714H283L491 332H493V714H701V0H487L268 390H266V0H58V714ZM189 768Q189 790 194 815T212 861T247 896T301 910Q326 910 350 904T394 890Q414 882 429 876T453 870Q469 870 481 878T498 913H580Q579 884 571 859T549 815T513 785T464 774Q439 774 417 779T375 793Q356 800 340 805T309 811Q292 811 282 797T268 768H189Z"  />
<glyph unicode="&#xD2;" horiz-adv-x="796" d="M256 357Q256 297 270 259T306 200T352 170T398 161Q419 161 444 169T490 199T525 259T540 357Q540 417 526 455T490 514T444 544T398 553Q377 553 352 545T306 515T271 455T256 357ZM36 357Q36 439 62 507T135 625T250 703T398 731Q479 731 546 703T660 626T734 508T760 357Q760 275 734 207T661 89T546 11T398 -17Q317 -17 250 11T136 88T62 206T36 357ZM174 915H382L482 766H345L174 915Z"  />
<glyph unicode="&#xD3;" horiz-adv-x="796" d="M256 357Q256 297 270 259T306 200T352 170T398 161Q419 161 444 169T490 199T525 259T540 357Q540 417 526 455T490 514T444 544T398 553Q377 553 352 545T306 515T271 455T256 357ZM36 357Q36 439 62 507T135 625T250 703T398 731Q479 731 546 703T660 626T734 508T760 357Q760 275 734 207T661 89T546 11T398 -17Q317 -17 250 11T136 88T62 206T36 357ZM447 766H311L410 915H619L447 766Z"  />
<glyph unicode="&#xD4;" horiz-adv-x="796" d="M256 357Q256 297 270 259T306 200T352 170T398 161Q419 161 444 169T490 199T525 259T540 357Q540 417 526 455T490 514T444 544T398 553Q377 553 352 545T306 515T271 455T256 357ZM36 357Q36 439 62 507T135 625T250 703T398 731Q479 731 546 703T660 626T734 508T760 357Q760 275 734 207T661 89T546 11T398 -17Q317 -17 250 11T136 88T62 206T36 357ZM318 915H482L604 766H457L400 842L344 766H197L318 915Z"  />
<glyph unicode="&#xD5;" horiz-adv-x="796" d="M256 357Q256 297 270 259T306 200T352 170T398 161Q419 161 444 169T490 199T525 259T540 357Q540 417 526 455T490 514T444 544T398 553Q377 553 352 545T306 515T271 455T256 357ZM36 357Q36 439 62 507T135 625T250 703T398 731Q479 731 546 703T660 626T734 508T760 357Q760 275 734 207T661 89T546 11T398 -17Q317 -17 250 11T136 88T62 206T36 357ZM205 768Q205 790 210 815T228 861T263 896T317 910Q342 910 366 904T410 890Q430 882 445 876T469 870Q485 870 497 878T514 913H596Q595 884 587 859T565 815T529 785T480 774Q455 774 433 779T391 793Q372 800 356 805T325 811Q308 811 298 797T284 768H205Z"  />
<glyph unicode="&#xD6;" horiz-adv-x="796" d="M256 357Q256 297 270 259T306 200T352 170T398 161Q419 161 444 169T490 199T525 259T540 357Q540 417 526 455T490 514T444 544T398 553Q377 553 352 545T306 515T271 455T256 357ZM36 357Q36 439 62 507T135 625T250 703T398 731Q479 731 546 703T660 626T734 508T760 357Q760 275 734 207T661 89T546 11T398 -17Q317 -17 250 11T136 88T62 206T36 357ZM200 905H370V775H200V905ZM427 905H597V775H427V905Z"  />
<glyph unicode="&#xD7;" horiz-adv-x="600" d="M51 112L192 253L51 394L159 502L300 361L441 503L549 395L408 253L549 112L440 4L300 145L159 4L51 112Z"  />
<glyph unicode="&#xD8;" horiz-adv-x="796" d="M760 706L673 611Q715 563 737 499T760 357Q760 275 734 207T661 89T546 11T398 -17Q330 -17 273 2T171 57L86 -37L41 5L127 99Q83 149 60 214T36 357Q36 439 62 507T135 625T250 703T398 731Q467 731 525 711T630 653L714 745L760 706ZM303 203Q325 179 350 170T398 161Q419 161 444 169T490 199T525 259T540 357Q540 385 537 407T527 450L303 203ZM497 507Q474 533 448 543T398 553Q377 553 352 545T306 515T271 455T256 357Q256 327 260 303T271 258L497 507Z"  />
<glyph unicode="&#xD9;" horiz-adv-x="759" d="M705 276Q705 127 625 55T380 -17Q215 -17 135 55T54 276V714H274V325Q274 298 275 269T287 216T319 177T381 161Q420 161 441 176T472 216T483 269T485 325V714H705V276ZM148 915H356L456 766H319L148 915Z"  />
<glyph unicode="&#xDA;" horiz-adv-x="759" d="M705 276Q705 127 625 55T380 -17Q215 -17 135 55T54 276V714H274V325Q274 298 275 269T287 216T319 177T381 161Q420 161 441 176T472 216T483 269T485 325V714H705V276ZM443 766H307L406 915H615L443 766Z"  />
<glyph unicode="&#xDB;" horiz-adv-x="759" d="M705 276Q705 127 625 55T380 -17Q215 -17 135 55T54 276V714H274V325Q274 298 275 269T287 216T319 177T381 161Q420 161 441 176T472 216T483 269T485 325V714H705V276ZM294 915H458L580 766H433L376 842L320 766H173L294 915Z"  />
<glyph unicode="&#xDC;" horiz-adv-x="759" d="M705 276Q705 127 625 55T380 -17Q215 -17 135 55T54 276V714H274V325Q274 298 275 269T287 216T319 177T381 161Q420 161 441 176T472 216T483 269T485 325V714H705V276ZM182 905H352V775H182V905ZM409 905H579V775H409V905Z"  />
<glyph unicode="&#xDD;" horiz-adv-x="667" d="M221 263L-30 714H213L332 451L456 714H697L441 263V0H221V263ZM401 766H265L364 915H573L401 766Z"  />
<glyph unicode="&#xDE;" horiz-adv-x="704" d="M57 714H277V630H425Q498 630 548 606T629 546T673 467T687 386Q687 321 667 274T609 195T520 148T407 132H277V0H57V714ZM277 302H362Q383 302 404 303T441 312T468 335T479 378Q479 402 471 416T448 437T414 445T375 447H277V302Z"  />
<glyph unicode="&#xDF;" horiz-adv-x="648" d="M58 466Q58 527 75 576T126 659T209 712T322 731Q382 731 430 716T511 675T561 614T579 538Q579 501 569 476T544 434T516 408T495 395V393Q498 393 518 387T560 361T601 308T619 217Q619 167 602 126T554 55T481 10T390 -6Q359 -6 339 -5T296 1V153Q317 147 337 147Q376 147 398 173T421 237Q421 267 411 285T384 313T344 327T296 331V441Q315 441 333 442T364 451T386 471T395 508Q395 540 377 556T327 573Q286 573 271 547T256 483V0H58V466Z"  />
<glyph unicode="&#xE0;" horiz-adv-x="611" d="M560 116Q560 87 563 56T584 0H382Q378 11 376 24T375 49H373Q341 13 298 0T206 -13Q168 -13 135 -4T77 24T38 73T23 144Q23 185 37 212T76 258T132 287T195 303T259 312T316 321Q336 325 353 333T370 367Q370 393 350 404T305 415Q282 415 268 410T246 397T234 380T231 362H47Q49 417 74 450T137 502T221 526T314 532Q407 532 457 515T530 468T556 403T560 329V116ZM370 233Q352 224 332 219T292 208Q259 200 242 189T225 152Q225 134 242 119T287 104Q321 104 344 124T370 185V233ZM134 721H342L442 572H305L134 721Z"  />
<glyph unicode="&#xE1;" horiz-adv-x="611" d="M560 116Q560 87 563 56T584 0H382Q378 11 376 24T375 49H373Q341 13 298 0T206 -13Q168 -13 135 -4T77 24T38 73T23 144Q23 185 37 212T76 258T132 287T195 303T259 312T316 321Q336 325 353 333T370 367Q370 393 350 404T305 415Q282 415 268 410T246 397T234 380T231 362H47Q49 417 74 450T137 502T221 526T314 532Q407 532 457 515T530 468T556 403T560 329V116ZM370 233Q352 224 332 219T292 208Q259 200 242 189T225 152Q225 134 242 119T287 104Q321 104 344 124T370 185V233ZM367 572H231L330 721H539L367 572Z"  />
<glyph unicode="&#xE2;" horiz-adv-x="611" d="M560 116Q560 87 563 56T584 0H382Q378 11 376 24T375 49H373Q341 13 298 0T206 -13Q168 -13 135 -4T77 24T38 73T23 144Q23 185 37 212T76 258T132 287T195 303T259 312T316 321Q336 325 353 333T370 367Q370 393 350 404T305 415Q282 415 268 410T246 397T234 380T231 362H47Q49 417 74 450T137 502T221 526T314 532Q407 532 457 515T530 468T556 403T560 329V116ZM370 233Q352 224 332 219T292 208Q259 200 242 189T225 152Q225 134 242 119T287 104Q321 104 344 124T370 185V233ZM236 721H400L522 572H375L318 648L262 572H115L236 721Z"  />
<glyph unicode="&#xE3;" horiz-adv-x="611" d="M560 116Q560 87 563 56T584 0H382Q378 11 376 24T375 49H373Q341 13 298 0T206 -13Q168 -13 135 -4T77 24T38 73T23 144Q23 185 37 212T76 258T132 287T195 303T259 312T316 321Q336 325 353 333T370 367Q370 393 350 404T305 415Q282 415 268 410T246 397T234 380T231 362H47Q49 417 74 450T137 502T221 526T314 532Q407 532 457 515T530 468T556 403T560 329V116ZM370 233Q352 224 332 219T292 208Q259 200 242 189T225 152Q225 134 242 119T287 104Q321 104 344 124T370 185V233ZM121 574Q121 596 126 621T144 667T179 702T233 716Q258 716 282 710T326 696Q346 688 361 682T385 676Q401 676 413 684T430 719H512Q511 690 503 665T481 621T445 591T396 580Q371 580 349 585T307 599Q288 606 272 611T241 617Q224 617 214 603T200 574H121Z"  />
<glyph unicode="&#xE4;" horiz-adv-x="611" d="M560 116Q560 87 563 56T584 0H382Q378 11 376 24T375 49H373Q341 13 298 0T206 -13Q168 -13 135 -4T77 24T38 73T23 144Q23 185 37 212T76 258T132 287T195 303T259 312T316 321Q336 325 353 333T370 367Q370 393 350 404T305 415Q282 415 268 410T246 397T234 380T231 362H47Q49 417 74 450T137 502T221 526T314 532Q407 532 457 515T530 468T556 403T560 329V116ZM370 233Q352 224 332 219T292 208Q259 200 242 189T225 152Q225 134 242 119T287 104Q321 104 344 124T370 185V233ZM119 711H289V581H119V711ZM346 711H516V581H346V711Z"  />
<glyph unicode="&#xE5;" horiz-adv-x="611" d="M560 116Q560 87 563 56T584 0H382Q378 11 376 24T375 49H373Q341 13 298 0T206 -13Q168 -13 135 -4T77 24T38 73T23 144Q23 185 37 212T76 258T132 287T195 303T259 312T316 321Q336 325 353 333T370 367Q370 393 350 404T305 415Q282 415 268 410T246 397T234 380T231 362H47Q49 417 74 450T137 502T221 526T314 532Q407 532 457 515T530 468T556 403T560 329V116ZM370 233Q352 224 332 219T292 208Q259 200 242 189T225 152Q225 134 242 119T287 104Q321 104 344 124T370 185V233ZM256 666Q256 642 271 628T309 613Q332 613 346 628T361 666Q361 689 346 703T309 718Q287 718 272 704T256 666ZM196 666Q196 689 204 710T228 746T265 769T309 777Q332 777 353 769T389 746T412 710T421 666Q421 643 413 623T389 587T353 564T309 556Q286 556 265 564T229 587T205 622T196 666Z"  />
<glyph unicode="&#xE6;" horiz-adv-x="962" d="M559 215Q561 167 584 141T658 114Q681 114 702 126T733 151H919Q908 113 883 83T822 31T746 -1T661 -13Q621 -13 592 -10T541 2T500 24T463 56Q433 31 399 17T332 -3T269 -11T215 -13Q181 -13 148 -6T90 20T48 69T32 147Q32 208 63 240T140 288T236 309T325 321Q352 326 370 335T389 367Q389 381 383 390T367 405T345 413T320 415Q289 415 267 403T241 362H55Q56 416 81 449T143 500T226 525T314 532Q336 532 360 530T408 521T454 504T496 476Q527 506 569 519T662 532Q736 532 788 506T873 435T920 334T931 215H559ZM389 237Q375 229 352 222T301 208Q273 203 254 192T234 148Q234 131 252 118T303 104Q347 104 368 131T389 195V237ZM735 318Q736 357 712 381T647 405Q621 405 604 397T577 375T563 347T559 318H735Z"  />
<glyph unicode="&#xE7;" horiz-adv-x="611" d="M185 -158Q207 -168 227 -173T271 -178Q291 -178 307 -170T323 -141Q323 -125 310 -116T280 -106Q261 -106 241 -116L215 -92L265 -9Q232 -5 203 6Q152 26 114 61T54 147T32 259Q32 320 54 370T114 457T203 512T313 532Q364 532 410 520T491 481T549 416T577 322H389Q386 355 367 371Q348 388 317 388Q288 388 271 377T245 347T233 306T230 259Q230 235 233 212T245 171T271 142T317 131Q349 131 370 153T394 207H583Q576 154 553 113T494 44T411 1Q368 -12 320 -13L289 -62L291 -64Q302 -59 333 -59Q351 -59 370 -64T403 -79T426 -107T433 -148Q430 -187 395 -210T302 -233Q260 -233 230 -227T164 -204L185 -158Z"  />
<glyph unicode="&#xE8;" horiz-adv-x="630" d="M221 215Q225 170 250 142T322 114Q346 114 369 123T405 151H590Q575 109 548 78T486 27T409 -3T323 -13Q261 -13 208 5T115 57T54 142T32 258Q32 315 51 364T107 451T193 510T306 532Q383 532 439 511T531 450T584 350T601 215H221ZM411 318Q411 354 387 379T324 405Q279 405 254 383T222 318H411ZM82 721H290L390 572H253L82 721Z"  />
<glyph unicode="&#xE9;" horiz-adv-x="630" d="M221 215Q225 170 250 142T322 114Q346 114 369 123T405 151H590Q575 109 548 78T486 27T409 -3T323 -13Q261 -13 208 5T115 57T54 142T32 258Q32 315 51 364T107 451T193 510T306 532Q383 532 439 511T531 450T584 350T601 215H221ZM411 318Q411 354 387 379T324 405Q279 405 254 383T222 318H411ZM369 572H233L332 721H541L369 572Z"  />
<glyph unicode="&#xEA;" horiz-adv-x="630" d="M221 215Q225 170 250 142T322 114Q346 114 369 123T405 151H590Q575 109 548 78T486 27T409 -3T323 -13Q261 -13 208 5T115 57T54 142T32 258Q32 315 51 364T107 451T193 510T306 532Q383 532 439 511T531 450T584 350T601 215H221ZM411 318Q411 354 387 379T324 405Q279 405 254 383T222 318H411ZM238 721H402L524 572H377L320 648L264 572H117L238 721Z"  />
<glyph unicode="&#xEB;" horiz-adv-x="630" d="M221 215Q225 170 250 142T322 114Q346 114 369 123T405 151H590Q575 109 548 78T486 27T409 -3T323 -13Q261 -13 208 5T115 57T54 142T32 258Q32 315 51 364T107 451T193 510T306 532Q383 532 439 511T531 450T584 350T601 215H221ZM411 318Q411 354 387 379T324 405Q279 405 254 383T222 318H411ZM121 711H291V581H121V711ZM348 711H518V581H348V711Z"  />
<glyph unicode="&#xEC;" horiz-adv-x="315" d="M58 0V519H256V0H58ZM-53 721H155L255 572H118L-53 721Z"  />
<glyph unicode="&#xED;" horiz-adv-x="315" d="M58 0V519H256V0H58ZM194 572H58L157 721H366L194 572Z"  />
<glyph unicode="&#xEE;" horiz-adv-x="315" d="M58 0V519H256V0H58ZM76 721H240L362 572H215L158 648L102 572H-45L76 721Z"  />
<glyph unicode="&#xEF;" horiz-adv-x="315" d="M58 0V519H256V0H58ZM-39 711H131V581H-39V711ZM188 711H358V581H188V711Z"  />
<glyph unicode="&#xF0;" horiz-adv-x="630" d="M526 702L427 649Q465 614 496 576T550 494T585 402T598 298Q598 246 586 191T541 91T454 16T314 -13Q177 -13 105 56T32 248Q32 321 57 368T119 444T197 483T269 495Q286 495 310 494T364 480L366 482Q349 506 324 532T278 571L178 518L106 596L187 640Q181 648 165 660T130 684L272 766Q292 752 310 739T342 720L450 779L526 702ZM314 131Q357 131 378 162T400 252Q400 368 314 368Q230 368 230 252Q230 193 250 162T314 131Z"  />
<glyph unicode="&#xF1;" horiz-adv-x="648" d="M54 519H245V453H247Q275 492 315 512T416 532Q451 532 483 521T540 489T579 434T594 356V0H396V272Q396 294 394 313T385 345T366 366T331 374Q318 374 304 370T279 355T260 325T252 274V0H54V519ZM127 574Q127 596 132 621T150 667T185 702T239 716Q264 716 288 710T332 696Q352 688 367 682T391 676Q407 676 419 684T436 719H518Q517 690 509 665T487 621T451 591T402 580Q377 580 355 585T313 599Q294 606 278 611T247 617Q230 617 220 603T206 574H127Z"  />
<glyph unicode="&#xF2;" horiz-adv-x="630" d="M400 260Q400 281 398 303T386 344T360 375T315 388Q287 388 270 376T244 345T233 304T230 260Q230 239 232 217T244 175T270 144T315 131Q343 131 360 143T386 175T397 216T400 260ZM598 260Q598 206 581 157T530 70T442 10T315 -13Q242 -13 189 9T101 69T49 156T32 260Q32 314 49 363T100 449T188 509T315 532Q388 532 441 510T529 450T581 363T598 260ZM87 721H295L395 572H258L87 721Z"  />
<glyph unicode="&#xF3;" horiz-adv-x="630" d="M400 260Q400 281 398 303T386 344T360 375T315 388Q287 388 270 376T244 345T233 304T230 260Q230 239 232 217T244 175T270 144T315 131Q343 131 360 143T386 175T397 216T400 260ZM598 260Q598 206 581 157T530 70T442 10T315 -13Q242 -13 189 9T101 69T49 156T32 260Q32 314 49 363T100 449T188 509T315 532Q388 532 441 510T529 450T581 363T598 260ZM370 572H234L333 721H542L370 572Z"  />
<glyph unicode="&#xF4;" horiz-adv-x="630" d="M400 260Q400 281 398 303T386 344T360 375T315 388Q287 388 270 376T244 345T233 304T230 260Q230 239 232 217T244 175T270 144T315 131Q343 131 360 143T386 175T397 216T400 260ZM598 260Q598 206 581 157T530 70T442 10T315 -13Q242 -13 189 9T101 69T49 156T32 260Q32 314 49 363T100 449T188 509T315 532Q388 532 441 510T529 450T581 363T598 260ZM234 721H398L520 572H373L316 648L260 572H113L234 721Z"  />
<glyph unicode="&#xF5;" horiz-adv-x="630" d="M400 260Q400 281 398 303T386 344T360 375T315 388Q287 388 270 376T244 345T233 304T230 260Q230 239 232 217T244 175T270 144T315 131Q343 131 360 143T386 175T397 216T400 260ZM598 260Q598 206 581 157T530 70T442 10T315 -13Q242 -13 189 9T101 69T49 156T32 260Q32 314 49 363T100 449T188 509T315 532Q388 532 441 510T529 450T581 363T598 260ZM120 574Q120 596 125 621T143 667T178 702T232 716Q257 716 281 710T325 696Q345 688 360 682T384 676Q400 676 412 684T429 719H511Q510 690 502 665T480 621T444 591T395 580Q370 580 348 585T306 599Q287 606 271 611T240 617Q223 617 213 603T199 574H120Z"  />
<glyph unicode="&#xF6;" horiz-adv-x="630" d="M400 260Q400 281 398 303T386 344T360 375T315 388Q287 388 270 376T244 345T233 304T230 260Q230 239 232 217T244 175T270 144T315 131Q343 131 360 143T386 175T397 216T400 260ZM598 260Q598 206 581 157T530 70T442 10T315 -13Q242 -13 189 9T101 69T49 156T32 260Q32 314 49 363T100 449T188 509T315 532Q388 532 441 510T529 450T581 363T598 260ZM116 711H286V581H116V711ZM343 711H513V581H343V711Z"  />
<glyph unicode="&#xF7;" horiz-adv-x="600" d="M301 147Q322 147 340 139T372 118T394 86T402 46Q402 25 394 7T373 -25T341 -47T301 -56Q280 -56 262 -48T230 -26T208 6T200 46Q200 67 208 85T229 117T261 139T301 147ZM301 358Q280 358 262 366T230 387T208 419T200 459Q200 480 208 498T229 530T261 552T301 561Q322 561 340 553T372 531T394 499T402 459Q402 438 394 420T373 388T341 366T301 358ZM48 329H553V176H48V329Z"  />
<glyph unicode="&#xF8;" horiz-adv-x="630" d="M569 515L521 459Q560 421 579 370T598 260Q598 206 581 157T530 70T442 10T315 -13Q264 -13 223 -2T149 29L94 -35L58 -2L111 59Q70 97 51 149T32 260Q32 314 49 363T100 449T188 509T315 532Q367 532 409 521T484 488L534 546L569 515ZM374 362Q365 374 351 381T315 388Q287 388 270 376T244 345T233 304T230 260Q230 246 231 231T236 202L374 362ZM258 155Q277 131 315 131Q343 131 360 143T386 175T397 216T400 260Q400 273 399 286T395 314L258 155Z"  />
<glyph unicode="&#xF9;" horiz-adv-x="648" d="M594 0H403V66H401Q373 27 333 7T232 -13Q197 -13 165 -2T108 30T69 85T54 163V519H252V247Q252 224 254 206T262 174T282 153T317 145Q330 145 344 149T369 164T388 194T396 245V519H594V0ZM83 721H291L391 572H254L83 721Z"  />
<glyph unicode="&#xFA;" horiz-adv-x="648" d="M594 0H403V66H401Q373 27 333 7T232 -13Q197 -13 165 -2T108 30T69 85T54 163V519H252V247Q252 224 254 206T262 174T282 153T317 145Q330 145 344 149T369 164T388 194T396 245V519H594V0ZM385 572H249L348 721H557L385 572Z"  />
<glyph unicode="&#xFB;" horiz-adv-x="648" d="M594 0H403V66H401Q373 27 333 7T232 -13Q197 -13 165 -2T108 30T69 85T54 163V519H252V247Q252 224 254 206T262 174T282 153T317 145Q330 145 344 149T369 164T388 194T396 245V519H594V0ZM241 721H405L527 572H380L323 648L267 572H120L241 721Z"  />
<glyph unicode="&#xFC;" horiz-adv-x="648" d="M594 0H403V66H401Q373 27 333 7T232 -13Q197 -13 165 -2T108 30T69 85T54 163V519H252V247Q252 224 254 206T262 174T282 153T317 145Q330 145 344 149T369 164T388 194T396 245V519H594V0ZM127 711H297V581H127V711ZM354 711H524V581H354V711Z"  />
<glyph unicode="&#xFD;" horiz-adv-x="556" d="M399 40Q387 5 372 -35T334 -104Q314 -128 290 -141T239 -160T183 -167T125 -168H35V-10H81Q96 -10 113 -10Q130 -10 141 -5Q150 0 155 8T160 34Q160 40 155 58T140 102T121 155T101 208T84 253T73 280L-15 519H197L280 221H282L366 519H571L399 40ZM350 572H214L313 721H522L350 572Z"  />
<glyph unicode="&#xFE;" horiz-adv-x="648" d="M54 714H252V462H254Q277 495 314 513T396 532Q461 532 504 507T572 443T607 356T617 262Q617 214 607 166T572 77T504 12T396 -13Q351 -13 314 5T254 57H252V-168H54V714ZM245 259Q245 236 248 213T262 172T288 143T332 131Q359 131 375 142T402 172T415 213T419 259Q419 282 416 305T402 346T376 376T332 388Q305 388 289 377T262 347T249 305T245 259Z"  />
<glyph unicode="&#xFF;" horiz-adv-x="556" d="M399 40Q387 5 372 -35T334 -104Q314 -128 290 -141T239 -160T183 -167T125 -168H35V-10H81Q96 -10 113 -10Q130 -10 141 -5Q150 0 155 8T160 34Q160 40 155 58T140 102T121 155T101 208T84 253T73 280L-15 519H197L280 221H282L366 519H571L399 40ZM83 711H253V581H83V711ZM310 711H480V581H310V711Z"  />
<glyph unicode="&#x131;" horiz-adv-x="315" d="M58 0V519H256V0H58Z"  />
<glyph unicode="&#x152;" horiz-adv-x="1130" d="M534 362Q534 410 525 443T502 497T471 530T439 546T411 552T395 553Q391 553 379 553T352 547T320 530T289 498T265 443T256 362Q256 288 274 248T317 188T364 165T395 161Q404 161 426 164T473 187T515 247T534 362ZM535 35Q522 21 502 11T458 -5T412 -14T371 -17Q294 -17 232 13T127 93T60 210T36 350Q36 426 59 495T127 616T236 700T380 731Q422 731 463 719T535 676V714H1075V531H736V442H1046V272H736V183H1085V0H535V35Z"  />
<glyph unicode="&#x153;" horiz-adv-x="981" d="M957 151Q941 108 914 77T851 26T772 -3T681 -13Q627 -13 579 1T491 53Q455 15 405 1T304 -13Q243 -13 193 5T107 57T52 142T32 259Q32 341 62 394T135 477T228 520T318 532Q367 532 416 519T501 469Q542 504 584 518T680 532Q752 532 805 508T894 441T945 340T960 215H576Q576 167 604 141T681 114Q709 114 728 122T766 151H957ZM406 259Q406 280 403 302T391 344T365 375T319 388Q290 388 273 376T246 344T233 303T230 259Q230 238 233 216T245 175T272 144T319 131Q348 131 365 143T391 174T403 215T406 259ZM763 318Q757 405 672 405Q634 405 606 384T576 318H763Z"  />
<glyph unicode="&#x160;" horiz-adv-x="667" d="M232 240Q232 214 240 193Q252 161 283 151T345 141Q358 141 374 143T404 153T427 173T436 206Q436 220 429 229T405 247T358 265T282 288Q240 300 197 313T119 349T62 406T40 495Q40 557 64 601T129 675T221 717T328 731Q386 731 439 719T533 680T599 608T626 498H418Q421 518 414 532T392 555Q378 565 361 569T327 573Q316 573 302 571T276 564T256 550T248 525Q249 506 267 494T315 472T380 454T455 435Q493 424 529 409T593 371T639 313T656 229Q656 159 627 112T551 37T445 -4T326 -17Q306 -17 275 -14T209 -1T139 26T76 72T30 142T12 240H232ZM425 764H261L140 913H287L343 837L400 913H547L425 764Z"  />
<glyph unicode="&#x161;" horiz-adv-x="574" d="M354 368Q353 381 347 390T331 407Q313 422 287 422Q266 422 247 415T227 382Q227 371 234 365T250 355Q262 350 281 346T324 338T373 329T424 315Q449 307 471 296T511 267T538 226T548 170Q548 116 525 81T464 25T379 -4T284 -13Q238 -13 193 -4T110 28T50 85T25 170H214Q215 144 238 124Q255 109 291 109Q301 109 312 111T334 117T351 130T358 149Q358 160 354 168T338 182T305 193T249 204Q136 223 87 261T37 367Q37 416 60 448T120 498T200 524T282 532Q324 532 368 525T448 500T508 450T534 368H354ZM378 572H214L93 721H240L296 645L353 721H500L378 572Z"  />
<glyph unicode="&#x178;" horiz-adv-x="667" d="M221 263L-30 714H213L332 451L456 714H697L441 263V0H221V263ZM134 905H304V775H134V905ZM361 905H531V775H361V905Z"  />
<glyph unicode="&#x17D;" horiz-adv-x="685" d="M24 172L356 531H43V714H646V554L311 183H662V0H24V172ZM426 766H262L141 915H288L344 839L401 915H548L426 766Z"  />
<glyph unicode="&#x17E;" horiz-adv-x="556" d="M17 153L260 375H39V519H514V367L277 144H535V0H17V153ZM364 572H200L79 721H226L282 645L339 721H486L364 572Z"  />
<glyph unicode="&#x192;" horiz-adv-x="668" d="M42 -34Q54 -37 64 -37Q85 -37 99 -32T122 -17T137 8T148 42L212 279H117L151 401H246L278 520Q291 568 310 607T356 673T422 716T513 731Q568 731 625 725L587 584Q566 587 546 587Q497 587 483 540L449 401H544L510 279H416L343 11Q328 -45 307 -82T255 -141T182 -172T81 -181Q61 -181 42 -180T3 -176L42 -34Z"  />
<glyph unicode="&#x2C6;" horiz-adv-x="278" d="M56 721H220L342 572H195L138 648L82 572H-65L56 721Z"  />
<glyph unicode="&#x2C7;" horiz-adv-x="278" d="M221 572H57L-64 721H83L139 645L196 721H343L221 572Z"  />
<glyph unicode="&#x2DA;" horiz-adv-x="278" d="M86 666Q86 642 101 628T139 613Q162 613 176 628T191 666Q191 689 176 703T139 718Q117 718 102 704T86 666ZM26 666Q26 689 34 710T58 746T95 769T139 777Q162 777 183 769T219 746T242 710T251 666Q251 643 243 623T219 587T183 564T139 556Q116 556 95 564T59 587T35 622T26 666Z"  />
<glyph unicode="&#x2DC;" horiz-adv-x="278" d="M-57 574Q-57 596 -52 621T-34 667T1 702T55 716Q80 716 104 710T148 696Q168 688 183 682T207 676Q223 676 235 684T252 719H334Q333 690 325 665T303 621T267 591T218 580Q193 580 171 585T129 599Q110 606 94 611T63 617Q46 617 36 603T22 574H-57Z"  />
<glyph unicode="&#x2013;" horiz-adv-x="500" d="M0 346H500V188H0V346Z"  />
<glyph unicode="&#x2014;" horiz-adv-x="1000" d="M130 346H870V188H130V346Z"  />
<glyph unicode="&#x2018;" horiz-adv-x="296" d="M56 499Q56 539 62 574T87 637T143 685T240 714V627Q195 622 177 597T158 533H240V335H56V499Z"  />
<glyph unicode="&#x2019;" horiz-adv-x="296" d="M240 550Q240 510 234 475T208 412T152 364T56 335V422Q101 427 119 452T138 516H56V714H240V550Z"  />
<glyph unicode="&#x201A;" horiz-adv-x="296" d="M240 34Q240 -6 234 -41T208 -104T152 -152T56 -181V-94Q101 -89 119 -64T138 0H56V198H240V34Z"  />
<glyph unicode="&#x201C;" horiz-adv-x="519" d="M46 499Q46 539 52 574T77 637T133 685T230 714V627Q185 622 167 597T148 533H230V335H46V499ZM290 499Q290 539 296 574T321 637T377 685T474 714V627Q429 622 411 597T392 533H474V335H290V499Z"  />
<glyph unicode="&#x201D;" horiz-adv-x="519" d="M230 550Q230 510 224 475T198 412T142 364T46 335V422Q91 427 109 452T128 516H46V714H230V550ZM474 550Q474 510 468 475T442 412T386 364T290 335V422Q335 427 353 452T372 516H290V714H474V550Z"  />
<glyph unicode="&#x201E;" horiz-adv-x="519" d="M230 34Q230 -6 224 -41T198 -104T142 -152T46 -181V-94Q91 -89 109 -64T128 0H46V198H230V34ZM474 34Q474 -6 468 -41T442 -104T386 -152T290 -181V-94Q335 -89 353 -64T372 0H290V198H474V34Z"  />
<glyph unicode="&#x2020;" horiz-adv-x="667" d="M235 371H60V529H235V714H433V529H608V371H433V-174H235V371Z"  />
<glyph unicode="&#x2021;" horiz-adv-x="667" d="M235 13H60V171H235V371H60V529H235V714H433V529H608V371H433V171H608V13H433V-174H235V13Z"  />
<glyph unicode="&#x2022;" horiz-adv-x="500" d="M72 357Q72 394 86 426T124 483T180 521T250 535Q287 535 319 521T376 483T415 427T429 357Q429 320 415 288T377 231T320 192T250 178Q213 178 181 192T124 230T86 287T72 357Z"  />
<glyph unicode="&#x2026;" horiz-adv-x="1000" d="M396 0V198H604V0H396ZM729 0V198H937V0H729ZM63 0V198H271V0H63Z"  />
<glyph unicode="&#x2030;" horiz-adv-x="1167" d="M169 530Q169 518 169 503T173 475T185 453T210 444Q226 444 234 453T246 475T250 503T251 530Q251 542 251 557T246 585T234 608T210 617Q194 617 186 608T174 586T170 557T169 530ZM65 531Q65 567 73 599T99 654T144 690T210 704Q248 704 275 691T320 654T346 599T355 531Q355 494 347 463T321 408T276 371T210 357Q172 357 145 370T100 407T74 462T65 531ZM811 166Q811 202 819 234T845 289T890 325T956 339Q994 339 1021 326T1066 289T1092 234T1101 166Q1101 129 1093 98T1067 43T1022 6T956 -8Q918 -8 891 5T846 42T820 97T811 166ZM915 165Q915 153 915 138T919 110T931 88T956 79Q972 79 980 88T992 110T996 138T997 165Q997 177 997 192T992 220T980 243T956 252Q940 252 932 243T920 221T916 192T915 165ZM570 165Q570 153 570 138T574 110T586 88T611 79Q627 79 635 88T647 110T651 138T652 165Q652 177 652 192T647 220T635 243T611 252Q595 252 587 243T575 221T571 192T570 165ZM466 166Q466 202 474 234T500 289T545 325T611 339Q649 339 676 326T721 289T747 234T756 166Q756 129 748 98T722 43T677 6T611 -8Q573 -8 546 5T501 42T475 97T466 166ZM559 722H669L259 -26H149L559 722Z"  />
<glyph unicode="&#x2039;" horiz-adv-x="241" d="M39 177V354L202 483V326L125 265L202 205V48L39 177Z"  />
<glyph unicode="&#x203A;" horiz-adv-x="241" d="M202 354V177L39 48V205L116 265L39 326V483L202 354Z"  />
<glyph unicode="&#x20AC;" horiz-adv-x="668" d="M583 515Q523 554 466 554Q379 554 341 462H568L531 373H325Q324 368 324 363Q324 358 324 352Q324 345 324 339Q324 334 325 329H514L477 240H343Q380 150 475 150Q538 150 614 200V14Q545 -17 449 -17Q329 -17 245 52Q162 123 131 240H53L90 329H118Q117 333 117 338Q117 344 117 351Q117 358 117 363Q117 369 118 373H51L88 462H131Q163 582 247 651Q333 722 453 722Q548 722 654 666L583 515Z"  />
<glyph unicode="&#x2122;" horiz-adv-x="1000" d="M968 302H844V532H842L767 302H663L588 532H586V302H462V714H634L714 475H716L796 714H968V302ZM376 620H272V302H136V620H32V714H376V620Z"  />

</font>
</defs>
</svg>
