<svg xmlns="http://www.w3.org/2000/svg">
<defs>
<font horiz-adv-x="556" id="f751c8ae-1057-46d9-8d74-62592e002568">
<font-face font-family="" panose-1="2 11 8 4 2 2 2 2 2 4" ascent="975" descent="-218" units-per-em="1000" alphabetic="0">
</font-face>
<missing-glyph horiz-adv-x="278" />

<glyph unicode="&#xA;" />
<glyph unicode="&#xD;" />
<glyph unicode=" " horiz-adv-x="278" />
<glyph unicode="!" horiz-adv-x="278" d="M61 154H218V0H61V154ZM213 522L174 214H103L65 522V714H213V522Z"  />
<glyph unicode="&quot;" horiz-adv-x="463" d="M85 714H192V393H85V714ZM271 714H378V393H271V714Z"  />
<glyph unicode="#" d="M243 412L225 288H322L339 412H243ZM116 198H33V288H128L146 412H63V502H158L186 700H283L255 502H352L379 700H476L449 502H523V412H436L419 288H493V198H406L379 0H282L309 198H213L185 0H88L116 198Z"  />
<glyph unicode="$" d="M141 232Q140 176 171 143T248 100V309Q243 311 235 313T216 318Q178 328 143 341T79 377T33 433T16 517Q16 568 35 607T87 672T161 713T248 731V808H307V731Q352 726 391 712T461 672T510 608T532 518H390Q389 558 365 586T307 614V437Q319 434 331 431T358 424Q431 404 471 375T531 313T553 249T557 192Q557 171 546 138T507 71T430 13T307 -17V-102H248V-17Q136 -9 73 52T-1 232H141ZM307 100Q325 102 344 108T379 127T405 156T415 198Q415 218 409 232T391 256T358 275T307 292V100ZM248 614Q231 614 215 609T186 594T166 568T158 531Q158 498 179 480T248 451V614Z"  />
<glyph unicode="%" horiz-adv-x="1000" d="M693 182Q693 166 694 145T701 106T720 74T757 61Q780 61 793 74T813 105T821 144T823 181Q823 196 822 216T814 255T796 287T761 301Q737 301 724 289T703 259T695 220T693 182ZM591 183Q591 224 601 259T632 320T685 361T761 376Q807 376 838 361T889 319T917 256T925 179Q925 138 915 103T885 42T832 1T756 -14Q710 -14 679 1T628 43T600 106T591 183ZM668 722H753L341 -22H254L668 722ZM177 514Q177 498 178 478T185 441T204 411T241 399Q264 399 277 411T297 440T305 477T307 513Q307 528 306 549T298 591T280 625T245 639Q221 639 208 626T187 594T179 553T177 514ZM75 516Q75 557 85 593T116 656T169 698T245 714Q291 714 322 698T373 655T401 590T409 512Q409 471 399 437T369 377T316 338T240 324Q194 324 163 338T112 378T84 439T75 516Z"  />
<glyph unicode="&amp;" horiz-adv-x="685" d="M464 71Q421 29 373 8T263 -14Q215 -14 173 0T99 42T50 109T32 200Q32 237 45 269T80 326T131 372T192 407Q163 442 144 477T124 559Q124 596 139 626T181 677T240 710T310 722Q350 722 386 711T448 679T490 625T506 551Q506 488 470 445T379 373L471 260Q482 280 488 301T497 345H620Q615 297 598 252T551 169L696 0H522L464 71ZM267 315Q248 307 230 296T198 270T176 237T167 197Q167 177 175 160T198 131T230 111T269 103Q307 103 335 120T389 166L267 315ZM382 559Q382 587 363 607T317 627Q291 627 272 610T253 564Q253 530 271 506T309 457Q339 476 360 498T382 559Z"  />
<glyph unicode="&apos;" horiz-adv-x="278" d="M86 714H193V393H86V714Z"  />
<glyph unicode="(" horiz-adv-x="296" d="M303 731Q247 625 221 510T194 278Q194 159 220 43T302 -182H184Q122 -79 87 35T52 268Q52 324 60 385T84 508T126 626T184 731H303Z"  />
<glyph unicode=")" horiz-adv-x="296" d="M-7 -182Q49 -76 75 38T102 270Q102 389 76 505T-6 731H112Q174 628 209 513T244 280Q244 224 236 163T211 41T170 -77T112 -182H-7Z"  />
<glyph unicode="*" horiz-adv-x="407" d="M242 589L358 633L385 556L267 517L341 419L275 370L201 473L131 370L64 419L138 517L22 556L49 633L162 589V714H242V589Z"  />
<glyph unicode="+" horiz-adv-x="600" d="M354 306H553V199H354V0H247V199H48V306H247V505H354V306Z"  />
<glyph unicode="&#x2c;" horiz-adv-x="278" d="M61 154H218V0Q218 -35 206 -63T172 -112T123 -147T62 -166V-94Q78 -91 91 -83T114 -61T129 -33T133 0H61V154Z"  />
<glyph unicode="-" horiz-adv-x="407" d="M53 334H354V212H53V334Z"  />
<glyph unicode="." horiz-adv-x="278" d="M60 154H217V0H60V154Z"  />
<glyph unicode="/" horiz-adv-x="371" d="M268 731H382L103 -17H-11L268 731Z"  />
<glyph unicode="0" d="M163 353Q163 323 165 281T177 199T211 131T277 103Q320 103 344 131T378 198T391 280T393 353Q393 371 393 396T389 449T379 502T359 550T326 584T277 597Q249 597 229 584T197 550T177 503T167 449T164 397T163 353ZM21 353Q21 455 41 524T97 636T178 696T277 714Q329 714 376 696T458 636T514 525T535 353Q535 248 515 178T459 65T376 4T277 -14Q225 -14 179 4T97 65T42 178T21 353Z"  />
<glyph unicode="1" d="M392 0H250V454H74V561Q111 560 145 566T208 589T254 633T279 700H392V0Z"  />
<glyph unicode="2" d="M37 431Q35 491 51 542T99 632T179 692T291 714Q339 714 382 699T459 656T511 587T531 495Q531 456 521 425T494 368T455 322T406 283T353 248T299 211T248 171T204 122H535V0H21Q21 61 38 106T86 186T156 252T242 313Q265 329 291 345T338 382T374 427T389 484Q389 534 360 563T284 592Q252 592 231 577T197 539T179 488T173 431H37Z"  />
<glyph unicode="3" d="M228 417Q251 415 277 417T325 428T362 456T377 504Q377 549 347 573T278 597Q224 597 197 562T170 472H35Q37 526 54 570T103 647T179 696T277 714Q319 714 361 702T436 664T491 603T512 520Q512 470 488 431T414 377V375Q472 362 505 319T538 216Q538 161 517 118T459 46T376 2T278 -14Q219 -14 171 3T88 53T36 133T18 241H153Q154 212 162 187T185 144T222 114T276 103Q324 103 357 133T390 213Q390 253 375 274T335 304T283 315T228 317V417Z"  />
<glyph unicode="4" d="M312 522H309L128 279H312V522ZM312 162H16V292L320 700H447V279H540V162H447V0H312V162Z"  />
<glyph unicode="5" d="M500 583H211L183 424L185 422Q214 451 247 463T322 476Q374 476 414 457T481 406T523 331T538 238Q538 184 517 138T461 57T378 4T278 -14Q227 -14 181 0T98 42T41 111T18 208H160Q165 161 196 132T275 103Q303 103 325 114T363 144T387 187T396 238Q396 265 388 289T364 331T326 359T275 369Q237 369 213 356T168 313H40L109 700H500V583Z"  />
<glyph unicode="6" d="M286 363Q257 363 236 353T201 324T180 283T173 233Q173 209 180 186T202 144T238 114T286 103Q311 103 331 114T365 143T386 184T393 231Q393 256 387 279T367 321T334 351T286 363ZM388 520Q381 555 356 581T294 607Q255 607 230 585T190 530T168 460T160 394L162 392Q191 434 230 452T320 470Q365 470 408 451T481 398Q509 366 522 325T535 242Q535 188 517 142T467 61T390 6T290 -14Q210 -14 159 17T76 100T33 217T21 348Q21 412 36 477T84 595T169 681T296 714Q387 714 449 664T523 520H388Z"  />
<glyph unicode="7" d="M517 578Q462 530 420 460T348 311T304 151T288 0H136Q148 156 209 301T371 568H39V700H517V578Z"  />
<glyph unicode="8" d="M172 510Q172 487 180 470T204 442T238 424T279 418Q323 418 353 441T384 510Q384 523 380 540T365 572T333 597T279 607Q236 607 204 582T172 510ZM43 523Q43 570 64 606T118 666T194 702T279 714Q344 714 389 694T461 646T501 584T513 526Q513 474 487 435T411 379V377Q474 363 508 318T542 206Q542 151 520 110T460 41T376 0T280 -14Q229 -14 182 -1T97 39T37 107T14 205Q14 272 49 317T146 377V379Q95 393 69 432T43 523ZM156 212Q156 185 166 163T192 126T231 102T280 93Q305 93 327 101T365 125T391 163T400 211Q400 236 391 256T365 292T327 315T280 323Q228 323 192 295T156 212Z"  />
<glyph unicode="9" d="M270 337Q298 337 319 347T355 376T376 417T383 467Q383 491 376 514T354 556T318 586T270 597Q244 597 225 586T191 557T170 516T163 469Q163 444 169 421T189 379T222 349T270 337ZM168 180Q175 145 200 119T262 93Q301 93 326 115T366 170T387 240T396 306L394 308Q365 266 326 248T236 230Q191 230 148 249T75 302Q47 334 34 375T21 458Q21 512 38 558T88 639T166 694T266 714Q345 714 397 683T480 600T523 483T535 352Q535 288 520 223T472 105T387 19T260 -14Q169 -14 107 36T33 180H168Z"  />
<glyph unicode=":" horiz-adv-x="278" d="M218 354H61V508H218V354ZM61 154H218V0H61V154Z"  />
<glyph unicode=";" horiz-adv-x="278" d="M218 354H61V508H218V354ZM61 154H218V0Q218 -35 206 -63T172 -112T123 -147T62 -166V-94Q78 -91 91 -83T114 -61T129 -33T133 0H61V154Z"  />
<glyph unicode="&lt;" horiz-adv-x="600" d="M554 399L187 253L554 107V-8L46 194V312L554 514V399Z"  />
<glyph unicode="=" horiz-adv-x="600" d="M553 92H48V199H553V92ZM553 306H48V413H553V306Z"  />
<glyph unicode="&gt;" horiz-adv-x="600" d="M46 107L413 253L46 399V514L554 312V194L46 -8V107Z"  />
<glyph unicode="?" d="M193 154H350V0H193V154ZM32 484Q33 538 50 583T99 661T175 712T275 731Q346 731 393 712T470 663T511 601T524 538Q524 502 517 476T498 430T471 396T440 369T408 346T379 321T355 291T342 252V214H207V259Q209 292 217 316T238 358T264 390T294 416T322 438T345 461T361 489T367 524Q367 570 345 592T282 614Q255 614 236 604T204 576T185 535T179 484H32Z"  />
<glyph unicode="@" horiz-adv-x="800" d="M559 287Q556 277 554 266T551 244Q551 234 555 228T568 221Q589 221 610 234T648 272T675 331T686 405Q686 465 665 510T608 587T522 635T415 651Q350 651 298 629T209 567T152 473T132 355Q132 289 154 236T215 144T308 84T427 63Q490 63 546 84T642 145H726Q675 67 595 25T421 -17Q341 -17 271 11T149 90T66 208T36 357Q36 436 66 504T148 623T269 702T416 731Q484 731 547 709T658 648T735 552T764 426Q764 349 737 294T671 204T593 153T529 136Q497 136 478 152T456 193H454Q436 163 407 149T346 135Q314 135 286 148T236 185T202 240T189 306Q189 353 204 399T248 481T317 539T407 561Q439 561 473 546T524 491L540 545H622L559 287ZM291 319Q291 279 312 255T369 230Q396 230 418 244T457 279T483 328T492 381Q492 418 470 442T415 466Q388 466 365 453T326 418T300 370T291 319Z"  />
<glyph unicode="A" horiz-adv-x="685" d="M249 276H434L344 538H342L249 276ZM264 714H425L692 0H529L475 159H208L152 0H-7L264 714Z"  />
<glyph unicode="B" horiz-adv-x="704" d="M226 425H385Q427 425 454 445T481 510Q481 535 472 551T448 576T414 588T373 592H226V425ZM69 714H405Q456 714 498 705T570 676T616 621T633 537Q633 484 608 448T536 388Q602 369 634 322T667 207Q667 153 646 114T590 49T509 12T415 0H69V714ZM226 122H394Q417 122 438 126T475 141T500 170T510 216Q510 271 479 294T397 318H226V122Z"  />
<glyph unicode="C" horiz-adv-x="741" d="M545 474Q541 501 527 523T492 563T445 589T389 599Q336 599 299 579T239 524T206 445T195 354Q195 309 205 267T239 190T299 136T389 115Q461 115 501 159T551 275H703Q697 208 672 154T606 62T510 4T389 -17Q306 -17 241 12T131 91T62 209T38 354Q38 433 62 502T131 622T241 702T389 731Q448 731 500 714T594 665T663 584T697 474H545Z"  />
<glyph unicode="D" horiz-adv-x="741" d="M226 132H366Q400 132 432 143T489 179T529 246T544 346Q544 400 534 443T499 518T436 565T338 582H226V132ZM69 714H377Q446 714 505 692T608 626T676 516T701 361Q701 283 681 217T621 103T520 28T377 0H69V714Z"  />
<glyph unicode="E" horiz-adv-x="648" d="M69 714H603V582H226V429H572V307H226V132H611V0H69V714Z"  />
<glyph unicode="F" horiz-adv-x="593" d="M69 714H571V582H226V417H525V295H226V0H69V714Z"  />
<glyph unicode="G" horiz-adv-x="759" d="M585 81Q543 27 492 5T389 -17Q306 -17 241 12T131 91T62 209T38 354Q38 433 62 502T131 622T241 702T389 731Q444 731 495 715T588 666T656 587T690 479H540Q526 539 486 569T389 599Q336 599 299 579T239 524T206 445T195 354Q195 309 205 267T239 190T299 136T389 115Q466 115 509 154T559 269H401V386H701V0H601L585 81Z"  />
<glyph unicode="H" horiz-adv-x="741" d="M69 714H226V440H515V714H672V0H515V308H226V0H69V714Z"  />
<glyph unicode="I" horiz-adv-x="295" d="M69 714H226V0H69V714Z"  />
<glyph unicode="J" d="M487 225Q487 202 484 175T473 121T448 70T406 26T341 -5T249 -17Q204 -17 162 -5T87 35T34 103T14 204V266H156V234Q156 208 160 186T174 149T201 124T247 115Q278 115 295 126T319 154T328 192T330 232V714H487V225Z"  />
<glyph unicode="K" horiz-adv-x="722" d="M69 714H226V418L505 714H701L422 432L728 0H531L316 321L226 230V0H69V714Z"  />
<glyph unicode="L" horiz-adv-x="593" d="M69 714H226V132H574V0H69V714Z"  />
<glyph unicode="M" horiz-adv-x="907" d="M69 714H290L457 223H459L617 714H838V0H691V506H689L514 0H393L218 501H216V0H69V714Z"  />
<glyph unicode="N" horiz-adv-x="741" d="M69 714H225L523 235H525V714H672V0H515L218 478H216V0H69V714Z"  />
<glyph unicode="O" horiz-adv-x="778" d="M195 354Q195 309 205 267T239 190T299 136T389 115Q442 115 479 135T539 190T572 266T583 354Q583 401 573 445T539 523T479 578T389 599Q336 599 299 579T239 524T206 445T195 354ZM38 354Q38 433 62 502T131 622T241 702T389 731Q472 731 537 702T647 622T716 502T740 354Q740 277 716 209T647 91T537 12T389 -17Q306 -17 241 12T131 91T62 209T38 354Z"  />
<glyph unicode="P" horiz-adv-x="667" d="M226 378H348Q375 378 400 382T444 397T474 430T486 485Q486 519 475 540T444 572T400 588T348 592H226V378ZM69 714H391Q458 714 505 695T581 643T624 570T638 485Q638 441 625 400T582 327T505 276T391 256H226V0H69V714Z"  />
<glyph unicode="Q" horiz-adv-x="778" d="M458 264L539 190Q559 217 571 257T583 354Q583 401 573 445T539 523T479 578T389 599Q336 599 299 579T239 524T206 445T195 354Q195 309 205 267T239 190T299 136T389 115Q406 115 425 116T452 125L385 186L458 264ZM663 -67L562 25Q527 5 484 -6T389 -17Q306 -17 241 12T131 91T62 209T38 354Q38 433 62 502T131 622T241 702T389 731Q472 731 537 702T647 622T716 502T740 354Q740 276 716 209T647 91L736 10L663 -67Z"  />
<glyph unicode="R" horiz-adv-x="722" d="M226 391H398Q451 391 478 415T506 493Q506 545 479 568T398 592H226V391ZM69 714H454Q502 714 540 699T606 656T648 593T663 517Q663 454 637 408T550 338V336Q579 328 598 312T629 272T646 223T654 169Q655 152 656 129T659 83T667 37T684 0H527Q520 17 517 37T511 80T507 126T502 171Q494 227 468 253T383 279H226V0H69V714Z"  />
<glyph unicode="S" horiz-adv-x="649" d="M176 237Q176 201 189 176T223 136T273 113T334 105Q355 105 379 108T424 122T459 149T473 194Q473 223 455 241T406 271T338 292T261 312Q221 322 183 336T115 374T67 431T48 515Q48 570 71 610T133 678T219 718T315 731Q371 731 422 719T514 678T577 607T601 501H449Q447 533 436 554T405 587T361 604T308 609Q289 609 270 605T236 591T210 566T200 528Q200 507 208 494T239 471T304 449T413 420Q426 417 447 412T491 397T538 372T581 335T613 283T625 212Q625 163 606 121T550 49T457 1T328 -17Q269 -17 214 -2T116 44T49 123T24 237H176Z"  />
<glyph unicode="T" horiz-adv-x="611" d="M227 582H13V714H598V582H384V0H227V582Z"  />
<glyph unicode="U" horiz-adv-x="741" d="M675 270Q675 125 594 54T370 -17Q225 -17 146 53T66 270V714H223V270Q223 241 228 213T249 163T293 128T370 115Q454 115 486 152T518 270V714H675V270Z"  />
<glyph unicode="V" horiz-adv-x="630" d="M401 0H224L-8 714H154L313 212H315L476 714H638L401 0Z"  />
<glyph unicode="W" horiz-adv-x="944" d="M749 0H593L472 486H470L351 0H192L3 714H160L273 228H275L399 714H546L668 222H670L787 714H941L749 0Z"  />
<glyph unicode="X" horiz-adv-x="667" d="M244 374L14 714H196L336 486L481 714H653L424 373L673 0H486L330 247L171 0H-6L244 374Z"  />
<glyph unicode="Y" horiz-adv-x="667" d="M254 278L-9 714H168L335 432L501 714H676L411 274V0H254V278Z"  />
<glyph unicode="Z" horiz-adv-x="648" d="M23 124L406 582H53V714H615V590L232 132H625V0H23V124Z"  />
<glyph unicode="[" horiz-adv-x="333" d="M68 731H332V619H210V-70H332V-182H68V731Z"  />
<glyph unicode="\" horiz-adv-x="371" d="M382 -17H268L-11 731H103L382 -17Z"  />
<glyph unicode="]" horiz-adv-x="333" d="M265 -182H1V-70H123V619H1V731H265V-182Z"  />
<glyph unicode="^" horiz-adv-x="600" d="M233 700H367L539 315H422L300 590L178 315H61L233 700Z"  />
<glyph unicode="_" horiz-adv-x="500" d="M0 -75H500V-125H0V-75Z"  />
<glyph unicode="`" horiz-adv-x="259" d="M-48 731H109L205 589H106L-48 731Z"  />
<glyph unicode="a" horiz-adv-x="574" d="M48 358Q51 408 73 441T129 494T205 522T291 531Q330 531 370 526T443 504T497 459T518 384V115Q518 80 522 48T536 0H392Q388 12 386 24T382 50Q348 15 302 1T208 -14Q171 -14 139 -5T83 24T46 72T32 141Q32 185 47 213T87 259T143 284T208 298T271 306T324 315T362 332T376 366Q376 389 369 402T349 423T320 433T284 436Q243 436 219 418T190 358H48ZM376 253Q367 245 354 241T325 233T292 228T258 223Q241 220 226 215T200 202T181 180T174 147Q174 127 181 115T200 95T228 84T261 81Q303 81 326 95T360 128T373 168T376 200V253Z"  />
<glyph unicode="b" horiz-adv-x="611" d="M433 258Q433 291 426 321T404 374T366 410T312 424Q280 424 258 411T220 374T198 321T191 258Q191 226 198 196T220 143T257 107T312 93Q343 93 366 106T404 143T426 196T433 258ZM54 714H196V454H198Q224 494 268 512T361 531Q400 531 438 515T506 466T556 382T575 259Q575 188 556 137T507 52T438 2T361 -14Q304 -14 259 4T191 66H189V0H54V714Z"  />
<glyph unicode="c" horiz-adv-x="574" d="M406 335Q392 424 301 424Q267 424 244 409T207 369T186 314T180 256Q180 228 186 199T205 147T242 108T298 93Q348 93 376 121T411 198H548Q534 95 468 41T299 -14Q240 -14 192 5T110 60T57 144T38 251Q38 311 55 362T107 451T190 510T302 531Q348 531 390 519T466 483T520 421T545 335H406Z"  />
<glyph unicode="d" horiz-adv-x="611" d="M421 260Q421 291 415 321T395 373T357 410T299 424Q264 424 240 410T202 373T181 321T174 259Q174 229 181 199T203 146T242 108T299 93Q334 93 357 107T395 144T415 198T421 260ZM423 66H421Q396 24 355 5T264 -14Q205 -14 162 9T90 70T47 159T32 263Q32 315 46 363T89 449T161 508T261 531Q307 531 348 512T414 454H416V714H558V0H423V66Z"  />
<glyph unicode="e" horiz-adv-x="574" d="M402 314Q392 368 367 396T289 424Q255 424 233 413T197 384T178 348T171 314H402ZM171 224Q174 156 206 125T298 93Q341 93 372 114T410 160H535Q505 68 443 27T293 -14Q232 -14 183 6T100 62T48 148T29 258Q29 316 48 366T102 452T185 510T293 531Q359 531 408 506T488 437T534 339T544 224H171Z"  />
<glyph unicode="f" horiz-adv-x="333" d="M85 422H0V517H85V557Q85 591 95 620T128 670T182 702T258 714Q277 714 296 713T333 710V604Q307 607 281 607Q252 607 240 594T227 548V517H325V422H227V0H85V422Z"  />
<glyph unicode="g" horiz-adv-x="611" d="M295 122Q325 122 348 134T386 166T408 211T416 265Q416 296 410 325T390 376T353 411T295 424Q265 424 244 412T208 380T187 333T180 277Q180 249 185 222T204 172T240 136T295 122ZM551 33Q551 12 548 -13T534 -64T506 -113T458 -155T385 -185T283 -196Q245 -196 206 -187T134 -157T80 -106T55 -30H196Q206 -70 235 -85T302 -101Q361 -101 389 -65T416 27V95H414Q391 54 349 35T259 15Q201 15 159 35T90 91T51 174T38 275Q38 325 52 371T95 453T164 510T260 531Q311 531 349 512T414 448H416V517H551V33Z"  />
<glyph unicode="h" horiz-adv-x="593" d="M54 714H196V445H199Q226 489 268 510T350 531Q407 531 443 516T501 473T530 406T539 318V0H397V292Q397 356 377 387T306 419Q248 419 222 385T196 271V0H54V714Z"  />
<glyph unicode="i" horiz-adv-x="258" d="M200 597H58V714H200V597ZM58 517H200V0H58V517Z"  />
<glyph unicode="j" horiz-adv-x="278" d="M209 597H67V714H209V597ZM-19 -61Q-7 -65 12 -65Q34 -65 50 -57T67 -19V517H209V-26Q209 -66 201 -95T172 -143T116 -172T27 -182Q16 -182 4 -181T-19 -178V-61Z"  />
<glyph unicode="k" horiz-adv-x="574" d="M67 714H209V331L388 517H556L361 327L578 0H406L264 231L209 178V0H67V714Z"  />
<glyph unicode="l" horiz-adv-x="258" d="M58 714H200V0H58V714Z"  />
<glyph unicode="m" horiz-adv-x="906" d="M58 517H192V447H194Q222 487 261 509T352 531Q401 531 441 512T503 445Q526 479 565 505T659 531Q700 531 735 521T795 489T834 432T848 346V0H706V293Q706 319 704 342T693 382T667 409T619 419Q589 419 571 408T542 378T528 336T524 288V0H382V290Q382 312 381 335T373 377T348 407T296 419Q285 419 269 415T238 398T211 362T200 300V0H58V517Z"  />
<glyph unicode="n" horiz-adv-x="593" d="M54 517H189V445H192Q219 489 262 510T350 531Q407 531 443 516T501 473T530 406T539 318V0H397V292Q397 356 377 387T306 419Q248 419 222 385T196 271V0H54V517Z"  />
<glyph unicode="o" horiz-adv-x="611" d="M180 258Q180 227 186 198T206 145T245 107T305 93Q341 93 365 107T404 144T425 197T431 258Q431 289 425 319T405 372T366 409T305 424Q269 424 245 410T207 372T186 319T180 258ZM38 258Q38 320 57 370T111 456T195 511T305 531Q366 531 415 512T500 457T554 371T573 258Q573 196 554 146T500 61T416 6T305 -14Q244 -14 195 5T111 60T57 146T38 258Z"  />
<glyph unicode="p" horiz-adv-x="611" d="M315 93Q350 93 373 107T411 143T432 195T438 257Q438 288 432 318T410 371T372 409T314 424Q279 424 256 410T218 372T197 319T191 257Q191 225 197 196T218 144T256 107T315 93ZM54 517H189V451H191Q217 493 257 512T345 531Q406 531 450 508T523 447T566 359T580 253Q580 201 566 153T524 68T453 9T353 -14Q306 -14 265 6T198 64H196V-182H54V517Z"  />
<glyph unicode="q" horiz-adv-x="611" d="M174 258Q174 227 180 198T200 145T238 107T297 93Q331 93 355 106T393 142T414 194T421 256Q421 286 415 316T394 370T357 409T300 424Q265 424 241 410T202 373T181 319T174 258ZM558 -182H416V65H414Q389 23 344 5T251 -14Q215 -14 177 0T106 45T53 128T32 255Q32 308 46 358T89 446T161 508T264 531Q312 531 354 513T421 451H423V517H558V-182Z"  />
<glyph unicode="r" horiz-adv-x="389" d="M54 517H189V421H191Q201 445 218 465T257 500T304 523T356 531Q372 531 387 526V394Q377 396 363 397T336 399Q297 399 270 386T227 351T203 298T196 233V0H54V517Z"  />
<glyph unicode="s" horiz-adv-x="537" d="M164 168Q164 145 173 129T198 102T232 86T273 81Q288 81 304 84T334 95T357 115T366 147Q366 163 355 174T324 195T273 211T205 227Q174 234 145 243T92 268T55 307T41 365Q41 414 60 446T112 497T184 523T266 531Q308 531 347 523T418 496T469 446T494 366H359Q356 407 328 421T262 436Q250 436 236 435T211 428T191 414T183 388Q183 369 197 357T233 338T285 324T344 311Q375 304 404 294T457 268T494 227T508 166Q508 115 488 81T434 25T359 -5T272 -14Q227 -14 184 -5T108 25T53 82T29 168H164Z"  />
<glyph unicode="t" horiz-adv-x="352" d="M234 517H338V422H234V166Q234 130 246 118T294 106Q318 106 338 110V-1Q320 -4 298 -5T255 -6Q222 -6 193 -2T141 16T105 54T92 117V422H6V517H92V672H234V517Z"  />
<glyph unicode="u" horiz-adv-x="593" d="M539 0H404V72H401Q374 28 331 7T243 -14Q186 -14 150 1T92 44T63 111T54 199V517H196V225Q196 161 216 130T287 98Q345 98 371 132T397 246V517H539V0Z"  />
<glyph unicode="v" horiz-adv-x="520" d="M340 0H182L5 517H154L263 164H265L374 517H515L340 0Z"  />
<glyph unicode="w" horiz-adv-x="814" d="M645 0H499L407 347H405L317 0H170L6 517H156L251 166H253L339 517H477L565 167H567L662 517H808L645 0Z"  />
<glyph unicode="x" horiz-adv-x="537" d="M186 272L16 517H178L269 382L359 517H516L346 275L537 0H375L267 163L159 0H0L186 272Z"  />
<glyph unicode="y" horiz-adv-x="519" d="M309 -65Q286 -127 245 -154T131 -182Q109 -182 88 -181T44 -177V-60Q64 -62 85 -64T127 -65Q145 -63 157 -54T176 -30T182 0Q182 17 176 32L-6 517H146L263 163H265L378 517H525L309 -65Z"  />
<glyph unicode="z" horiz-adv-x="519" d="M22 107L291 410H42V517H478V410L209 107H497V0H22V107Z"  />
<glyph unicode="{" horiz-adv-x="333" d="M333 619H279Q261 619 251 612T234 595T227 571T225 546V394Q225 357 214 335T187 300T154 282T126 276V273Q137 272 154 267T186 249T213 215T225 163V3Q225 -9 226 -22T234 -45T250 -63T279 -70H333V-182H206Q189 -182 168 -174T128 -149T96 -107T83 -47V148Q83 171 73 187T49 212T19 226T-9 231V318Q3 318 19 322T49 337T73 365T83 408V596Q83 630 96 655T127 697T167 722T206 731H333V619Z"  />
<glyph unicode="|" horiz-adv-x="223" d="M58 786H165V-214H58V786Z"  />
<glyph unicode="}" horiz-adv-x="333" d="M0 -70H54Q72 -70 82 -63T99 -46T106 -22T108 3V163Q108 194 119 215T146 248T179 266T207 273V276Q196 277 179 282T146 299T119 334T108 394V546Q108 558 107 571T99 594T83 612T54 619H0V731H127Q144 731 165 723T205 698T237 656T250 596V408Q250 383 260 366T284 338T314 323T342 318V231Q330 231 314 227T284 213T260 187T250 148V-47Q250 -81 237 -106T206 -148T166 -173T127 -182H0V-70Z"  />
<glyph unicode="~" horiz-adv-x="600" d="M533 251Q522 235 510 220T483 192T450 173T408 165Q380 165 356 174T306 198Q282 212 254 222T191 233Q174 233 162 227T139 210T121 187T107 161L67 254Q75 270 86 285T113 313T147 332T192 340Q218 340 246 331T303 308Q331 296 358 284T405 272Q420 272 432 278T455 295T475 318T493 344L533 251Z"  />
<glyph unicode="&#xA0;" horiz-adv-x="278" />
<glyph unicode="&#xA1;" horiz-adv-x="278" d="M65 9L104 317H175L213 9V-183H65V9ZM218 377H61V531H218V377Z"  />
<glyph unicode="&#xA2;" d="M260 -14Q206 -11 162 11T87 68T38 150T21 250Q21 307 36 356T82 442T157 503T260 531V616H319V531Q360 531 399 517T470 478T521 416T543 334H404Q401 370 377 395T319 424V93Q337 96 353 106T380 132T399 165T406 203H545Q541 155 523 117T474 51T405 7T319 -14V-115H260V-14ZM260 423Q233 416 215 400T185 363T168 316T163 264Q163 237 167 211T183 161T213 120T260 93V423Z"  />
<glyph unicode="&#xA3;" d="M26 76Q47 89 67 106T103 145T129 190T139 242Q139 259 134 275T120 309H21V394H85Q70 413 55 450T40 532Q40 572 56 608T105 671T185 715T296 731Q353 731 398 715T474 667T522 589T539 481H404Q403 496 400 518T387 562T355 598T295 614Q251 614 224 589T197 522Q197 510 198 499T202 474T214 440T238 394H371V309H266Q271 294 272 279T274 247Q274 200 250 167T192 107L194 105Q218 120 233 124T262 128Q282 128 301 125T341 117Q361 112 380 109T419 105Q439 105 459 112T507 148L567 47Q531 12 490 -2T411 -17Q373 -17 348 -12T302 1Q280 9 258 15T203 21Q176 21 147 14T88 -17L26 76Z"  />
<glyph unicode="&#xA4;" d="M280 491Q248 491 225 479T185 448T161 403T153 349Q153 322 161 297T185 252T224 221T279 209Q310 209 333 221T371 253T393 298T401 351Q401 377 394 402T371 447T333 479T280 491ZM77 207Q54 234 42 270T29 349Q29 391 40 429T77 493L20 551L77 608L134 552Q159 573 198 585T280 598Q320 598 357 586T417 553L475 610L536 549L480 494Q502 470 513 432T525 351Q525 309 514 271T479 205L534 149L479 94L422 152Q397 128 359 115T279 102Q235 102 197 114T132 151L76 93L20 149L77 207Z"  />
<glyph unicode="&#xA5;" d="M207 0V138H50V233H207V279L193 308H50V403H145L-9 714H154L286 403L415 714H577L422 403H517V308H374L359 279V233H517V138H359V0H207Z"  />
<glyph unicode="&#xA6;" horiz-adv-x="223" d="M165 411H58V661H165V411ZM58 161H165V-89H58V161Z"  />
<glyph unicode="&#xA7;" d="M370 538Q370 575 348 599T285 624Q258 624 234 607T209 560Q209 539 224 523T263 491T317 463T379 434T440 402T494 363T531 314T546 250Q546 200 518 161T442 104Q471 82 484 52T497 -14Q497 -56 478 -87T429 -140T360 -171T284 -182Q236 -182 195 -171T124 -136T76 -76T59 12H183Q185 -32 210 -53T281 -75Q312 -75 333 -59T355 -9Q355 13 341 30T303 63T249 92T185 121T121 154T65 194T25 245T10 311Q10 365 38 402T117 457Q96 480 85 503T74 558Q74 600 92 632T140 687T207 720T283 731Q327 731 365 719T432 681T477 620T494 538H370ZM212 380Q206 383 200 387T185 390Q174 389 165 383T149 367T138 346T134 323Q134 309 141 296T166 274L346 176Q351 174 359 172T376 169Q386 169 394 174T409 188T418 206T422 224Q422 247 409 262T377 287L212 380Z"  />
<glyph unicode="&#xA8;" horiz-adv-x="259" d="M-41 715H94V598H-41V715ZM165 715H300V598H165V715Z"  />
<glyph unicode="&#xA9;" horiz-adv-x="800" d="M596 295Q590 257 574 228T533 179T478 148T414 137Q365 137 326 154T258 201T215 271T199 359Q199 407 213 448T255 519T322 566T412 583Q446 583 477 573T532 544T572 495T593 428H515Q507 463 479 483T412 503Q355 503 325 463T295 361Q295 332 303 306T327 260T365 229T414 217Q456 217 483 238T515 295H596ZM118 357Q118 293 140 239T200 146T289 85T400 63Q458 63 509 85T599 146T659 239T682 357Q682 421 660 475T599 568T510 629T400 651Q341 651 290 629T200 568T140 475T118 357ZM16 357Q16 442 47 511T132 629T254 704T400 731Q476 731 545 705T668 630T752 512T784 357Q784 272 753 203T668 85T546 10T400 -17Q324 -17 255 9T132 85T48 203T16 357Z"  />
<glyph unicode="&#xAA;" horiz-adv-x="344" d="M20 605Q25 638 39 659T75 692T122 709T176 714Q202 714 229 711T277 698T312 671T326 625V459Q326 434 329 415T338 384H237Q232 399 230 415Q208 392 179 384T122 375Q75 375 43 398T10 475Q10 502 20 520T46 548T82 564T124 572Q146 575 166 576T200 581T222 591T231 610Q231 636 214 642T171 649Q154 649 139 639T122 605H20ZM230 535Q219 525 199 523T163 517Q142 512 127 504T112 477Q112 455 127 448T157 440Q182 440 196 447T218 466T228 490T230 515V535Z"  />
<glyph unicode="&#xAB;" horiz-adv-x="444" d="M42 205V340L199 463V343L109 272L199 200V80L42 205ZM245 205V340L402 463V343L312 272L402 200V80L245 205Z"  />
<glyph unicode="&#xAC;" horiz-adv-x="600" d="M552 99H445V299H48V406H552V99Z"  />
<glyph unicode="&#xAD;" horiz-adv-x="407" d="M53 334H354V212H53V334Z"  />
<glyph unicode="&#xAE;" horiz-adv-x="800" d="M334 393H408Q426 393 441 395T467 403T484 420T490 451Q490 468 482 478T462 493T434 501T404 503H334V393ZM251 568H409Q488 568 530 540T573 444Q573 415 565 395T541 361T506 341T463 332L575 149H488L386 328H334V149H251V568ZM118 358Q118 294 140 240T200 147T289 85T400 63Q458 63 509 85T599 146T659 240T682 358Q682 422 660 475T599 568T510 629T400 651Q341 651 290 629T200 568T140 476T118 358ZM16 358Q16 443 47 512T132 629T254 704T400 731Q476 731 545 705T668 630T752 512T784 358Q784 272 753 203T668 85T546 10T400 -17Q324 -17 255 9T132 85T48 203T16 358Z"  />
<glyph unicode="&#xAF;" horiz-adv-x="259" d="M-57 694H316V619H-57V694Z"  />
<glyph unicode="&#xB0;" horiz-adv-x="400" d="M117 566Q117 548 124 532T142 504T169 485T200 478Q216 478 231 485T257 504T276 532T283 566Q283 584 276 600T258 628T231 647T200 654Q184 654 169 647T143 628T124 600T117 566ZM52 566Q52 597 63 624T95 671T142 702T200 714Q231 714 258 703T305 671T336 624T348 566Q348 535 337 508T305 461T258 430T200 418Q169 418 142 429T95 461T64 508T52 566Z"  />
<glyph unicode="&#xB1;" horiz-adv-x="600" d="M48 107H553V0H48V107ZM354 375H553V268H354V137H247V268H48V375H247V506H354V375Z"  />
<glyph unicode="&#xB2;" horiz-adv-x="392" d="M28 540Q27 617 72 665T209 714Q240 714 268 706T318 680T352 638T365 579Q365 532 342 503T284 451T214 409T152 353H361V273H27Q27 313 38 341T68 392T112 433T167 469Q182 479 198 489T229 511T253 537T263 572Q263 598 247 616T202 634Q181 634 167 625T145 602T133 572T130 540H28Z"  />
<glyph unicode="&#xB3;" horiz-adv-x="392" d="M164 534Q178 534 194 534T225 539T249 553T259 581Q259 606 240 620T197 634Q165 634 147 613T130 562H34Q36 632 78 673T196 714Q226 714 254 707T305 684T341 645T355 591Q355 561 339 537T289 505V503Q327 496 348 470T370 409Q370 373 356 346T319 301T264 273T197 264Q116 264 68 305T22 424H118Q120 392 138 368T195 344Q225 344 246 361T268 407Q268 428 258 440T233 457T199 463T164 464V534Z"  />
<glyph unicode="&#xB4;" horiz-adv-x="259" d="M153 589H54L150 731H307L153 589Z"  />
<glyph unicode="&#xB5;" horiz-adv-x="593" d="M539 0H404V72H401Q387 50 370 34T334 8T300 -8T271 -14Q241 -14 223 -7T196 10V-182H54V517H196V225Q196 161 216 130T287 98Q345 98 371 132T397 246V517H539V0Z"  />
<glyph unicode="&#xB6;" horiz-adv-x="620" d="M221 357Q116 357 59 404T2 532Q2 584 20 619T70 675T146 705T242 714H535V-166H433V634H323V-166H221V357Z"  />
<glyph unicode="&#xB7;" horiz-adv-x="278" d="M55 287Q55 305 62 320T80 347T107 365T140 372Q174 372 199 347T224 287Q224 271 217 256T199 229T173 210T141 203Q123 203 108 209T81 227T62 254T55 287Z"  />
<glyph unicode="&#xB8;" horiz-adv-x="259" d="M33 -147Q49 -154 70 -159T117 -165Q135 -165 146 -157T157 -131Q157 -112 146 -106T117 -99Q96 -99 77 -106L56 -82L115 0H164L125 -52L126 -54Q144 -47 161 -47Q178 -47 194 -51T224 -63T245 -85T253 -117Q253 -146 243 -165T216 -196T179 -212T136 -217Q112 -217 95 -216T65 -211T39 -204T12 -195L33 -147Z"  />
<glyph unicode="&#xB9;" horiz-adv-x="392" d="M289 273H187V547H77V622Q125 620 161 638T205 705H289V273Z"  />
<glyph unicode="&#xBA;" horiz-adv-x="367" d="M119 544Q119 527 122 511T134 481T154 459T183 450Q200 450 212 458T233 480T244 510T248 544Q248 561 245 578T233 608T213 630T183 639Q166 639 154 631T134 609T123 578T119 544ZM12 544Q12 623 58 668T183 714Q261 714 308 669T355 544Q355 465 308 420T183 375Q105 375 59 420T12 544Z"  />
<glyph unicode="&#xBB;" horiz-adv-x="444" d="M199 340V205L42 80V200L132 272L42 343V463L199 340ZM402 340V205L245 80V200L335 272L245 343V463L402 340Z"  />
<glyph unicode="&#xBC;" horiz-adv-x="892" d="M689 313H687L573 169H689V313ZM689 89H497V182L685 420H785V169H842V89H785V0H689V89ZM236 273H134V547H24V622Q72 620 108 638T152 705H236V273ZM566 722H651L239 -22H152L566 722Z"  />
<glyph unicode="&#xBD;" horiz-adv-x="889" d="M509 267Q508 344 553 392T690 441Q721 441 749 433T799 407T833 365T846 306Q846 259 823 230T765 178T695 136T633 80H842V0H508Q508 40 519 68T549 119T593 160T648 196Q663 206 679 216T710 238T734 264T744 299Q744 325 728 343T683 361Q662 361 648 352T626 329T614 299T611 267H509ZM236 273H134V547H24V622Q72 620 108 638T152 705H236V273ZM566 722H651L239 -22H152L566 722Z"  />
<glyph unicode="&#xBE;" horiz-adv-x="889" d="M709 313H707L593 169H709V313ZM709 89H517V182L705 420H805V169H862V89H805V0H709V89ZM181 534Q195 534 211 534T242 539T266 553T276 581Q276 606 257 620T214 634Q182 634 164 613T147 562H51Q53 632 95 673T213 714Q243 714 271 707T322 684T358 645T372 591Q372 561 356 537T306 505V503Q344 496 365 470T387 409Q387 373 373 346T336 301T281 273T214 264Q133 264 85 305T39 424H135Q137 392 155 368T212 344Q242 344 263 361T285 407Q285 428 275 440T250 457T216 463T181 464V534ZM653 722H738L326 -22H239L653 722Z"  />
<glyph unicode="&#xBF;" d="M363 377H206V531H363V377ZM522 51Q521 -3 504 -48T455 -126T379 -177T281 -196Q210 -196 163 -177T86 -128T45 -66T32 -3Q32 33 39 59T58 105T85 139T116 166T148 189T177 214T201 244T214 283V321H349V276Q347 243 339 219T318 177T292 145T262 119T234 97T211 74T195 46T189 11Q189 -35 211 -57T274 -79Q300 -79 319 -69T350 -41T369 0T375 51H522Z"  />
<glyph unicode="&#xC0;" horiz-adv-x="685" d="M249 276H434L344 538H342L249 276ZM264 714H425L692 0H529L475 159H208L152 0H-7L264 714ZM160 921H317L413 779H314L160 921Z"  />
<glyph unicode="&#xC1;" horiz-adv-x="685" d="M249 276H434L344 538H342L249 276ZM264 714H425L692 0H529L475 159H208L152 0H-7L264 714ZM372 779H273L369 921H526L372 779Z"  />
<glyph unicode="&#xC2;" horiz-adv-x="685" d="M249 276H434L344 538H342L249 276ZM264 714H425L692 0H529L475 159H208L152 0H-7L264 714ZM282 921H412L522 779H405L343 860L279 779H171L282 921Z"  />
<glyph unicode="&#xC3;" horiz-adv-x="685" d="M249 276H434L344 538H342L249 276ZM264 714H425L692 0H529L475 159H208L152 0H-7L264 714ZM528 911Q524 888 517 870T498 835T467 808T416 797Q397 797 382 800T335 814Q310 822 296 826T267 831Q248 831 238 820T222 789H161Q165 812 173 833T195 871T232 900T278 911Q293 911 308 908T350 893Q367 887 383 882T415 876Q433 876 443 883T459 911H528Z"  />
<glyph unicode="&#xC4;" horiz-adv-x="685" d="M249 276H434L344 538H342L249 276ZM264 714H425L692 0H529L475 159H208L152 0H-7L264 714ZM175 905H310V788H175V905ZM381 905H516V788H381V905Z"  />
<glyph unicode="&#xC5;" horiz-adv-x="685" d="M249 276H434L344 538H342L249 276ZM264 714H425L692 0H529L475 159H208L152 0H-7L264 714ZM222 866Q222 891 231 913T257 952T296 978T344 988Q369 988 391 979T431 953T457 914T467 866Q467 841 458 819T431 780T392 754T344 745Q319 745 297 754T258 779T232 818T222 866ZM281 866Q281 837 298 818T344 798Q373 798 390 817T408 866Q408 895 391 914T344 934Q315 934 298 915T281 866Z"  />
<glyph unicode="&#xC6;" horiz-adv-x="981" d="M330 714H936V582H604V429H916V307H604V132H944V0H452V159H228L156 0H-11L330 714ZM280 276H452V582H418L280 276Z"  />
<glyph unicode="&#xC7;" horiz-adv-x="741" d="M272 -147Q288 -154 309 -159T356 -165Q374 -165 385 -157T396 -131Q396 -112 385 -106T356 -99Q335 -99 316 -106L295 -82L343 -15Q287 -9 241 12Q176 41 131 91T62 209T38 354Q38 433 62 502T131 622T241 702T389 731Q448 731 500 714T594 665T663 584T697 474H545Q541 501 527 523T492 563T445 589T389 599Q336 599 299 579T239 524T206 445T195 354Q195 309 205 267T239 190T299 136T389 115Q461 115 501 159T551 275H703Q697 208 672 154T606 62T510 4T390 -17L364 -52L365 -54Q383 -47 400 -47Q417 -47 433 -51T463 -63T484 -85T492 -117Q492 -146 482 -165T455 -196T418 -212T375 -217Q351 -217 334 -216T304 -211T278 -204T251 -195L272 -147Z"  />
<glyph unicode="&#xC8;" horiz-adv-x="648" d="M69 714H603V582H226V429H572V307H226V132H611V0H69V714ZM163 921H320L416 779H317L163 921Z"  />
<glyph unicode="&#xC9;" horiz-adv-x="648" d="M69 714H603V582H226V429H572V307H226V132H611V0H69V714ZM378 779H279L375 921H532L378 779Z"  />
<glyph unicode="&#xCA;" horiz-adv-x="648" d="M69 714H603V582H226V429H572V307H226V132H611V0H69V714ZM268 921H398L508 779H391L329 860L265 779H157L268 921Z"  />
<glyph unicode="&#xCB;" horiz-adv-x="648" d="M69 714H603V582H226V429H572V307H226V132H611V0H69V714ZM169 905H304V788H169V905ZM375 905H510V788H375V905Z"  />
<glyph unicode="&#xCC;" horiz-adv-x="295" d="M69 714H226V0H69V714ZM-27 921H130L226 779H127L-27 921Z"  />
<glyph unicode="&#xCD;" horiz-adv-x="295" d="M69 714H226V0H69V714ZM167 779H68L164 921H321L167 779Z"  />
<glyph unicode="&#xCE;" horiz-adv-x="295" d="M69 714H226V0H69V714ZM83 921H213L323 779H206L144 860L80 779H-28L83 921Z"  />
<glyph unicode="&#xCF;" horiz-adv-x="295" d="M69 714H226V0H69V714ZM-24 905H111V788H-24V905ZM182 905H317V788H182V905Z"  />
<glyph unicode="&#xD0;" horiz-adv-x="741" d="M226 427H386V310H226V132H366Q400 132 432 143T489 179T529 246T544 346Q544 400 534 443T499 518T436 565T338 582H226V427ZM69 311H3V427H69V714H377Q446 714 505 692T608 626T676 516T701 361Q701 283 681 217T621 103T520 28T377 0H69V311Z"  />
<glyph unicode="&#xD1;" horiz-adv-x="741" d="M69 714H225L523 235H525V714H672V0H515L218 478H216V0H69V714ZM558 911Q554 888 547 870T528 835T497 808T446 797Q427 797 412 800T365 814Q340 822 326 826T297 831Q278 831 268 820T252 789H191Q195 812 203 833T225 871T262 900T308 911Q323 911 338 908T380 893Q397 887 413 882T445 876Q463 876 473 883T489 911H558Z"  />
<glyph unicode="&#xD2;" horiz-adv-x="778" d="M195 354Q195 309 205 267T239 190T299 136T389 115Q442 115 479 135T539 190T572 266T583 354Q583 401 573 445T539 523T479 578T389 599Q336 599 299 579T239 524T206 445T195 354ZM38 354Q38 433 62 502T131 622T241 702T389 731Q472 731 537 702T647 622T716 502T740 354Q740 277 716 209T647 91T537 12T389 -17Q306 -17 241 12T131 91T62 209T38 354ZM199 921H356L452 779H353L199 921Z"  />
<glyph unicode="&#xD3;" horiz-adv-x="778" d="M195 354Q195 309 205 267T239 190T299 136T389 115Q442 115 479 135T539 190T572 266T583 354Q583 401 573 445T539 523T479 578T389 599Q336 599 299 579T239 524T206 445T195 354ZM38 354Q38 433 62 502T131 622T241 702T389 731Q472 731 537 702T647 622T716 502T740 354Q740 277 716 209T647 91T537 12T389 -17Q306 -17 241 12T131 91T62 209T38 354ZM434 779H335L431 921H588L434 779Z"  />
<glyph unicode="&#xD4;" horiz-adv-x="778" d="M195 354Q195 309 205 267T239 190T299 136T389 115Q442 115 479 135T539 190T572 266T583 354Q583 401 573 445T539 523T479 578T389 599Q336 599 299 579T239 524T206 445T195 354ZM38 354Q38 433 62 502T131 622T241 702T389 731Q472 731 537 702T647 622T716 502T740 354Q740 277 716 209T647 91T537 12T389 -17Q306 -17 241 12T131 91T62 209T38 354ZM331 921H461L571 779H454L392 860L328 779H220L331 921Z"  />
<glyph unicode="&#xD5;" horiz-adv-x="778" d="M195 354Q195 309 205 267T239 190T299 136T389 115Q442 115 479 135T539 190T572 266T583 354Q583 401 573 445T539 523T479 578T389 599Q336 599 299 579T239 524T206 445T195 354ZM38 354Q38 433 62 502T131 622T241 702T389 731Q472 731 537 702T647 622T716 502T740 354Q740 277 716 209T647 91T537 12T389 -17Q306 -17 241 12T131 91T62 209T38 354ZM573 911Q569 888 562 870T543 835T512 808T461 797Q442 797 427 800T380 814Q355 822 341 826T312 831Q293 831 283 820T267 789H206Q210 812 218 833T240 871T277 900T323 911Q338 911 353 908T395 893Q412 887 428 882T460 876Q478 876 488 883T504 911H573Z"  />
<glyph unicode="&#xD6;" horiz-adv-x="778" d="M195 354Q195 309 205 267T239 190T299 136T389 115Q442 115 479 135T539 190T572 266T583 354Q583 401 573 445T539 523T479 578T389 599Q336 599 299 579T239 524T206 445T195 354ZM38 354Q38 433 62 502T131 622T241 702T389 731Q472 731 537 702T647 622T716 502T740 354Q740 277 716 209T647 91T537 12T389 -17Q306 -17 241 12T131 91T62 209T38 354ZM216 905H351V788H216V905ZM422 905H557V788H422V905Z"  />
<glyph unicode="&#xD7;" horiz-adv-x="600" d="M64 93L225 253L66 413L142 489L301 329L461 489L537 413L376 253L537 93L461 17L301 178L140 17L64 93Z"  />
<glyph unicode="&#xD8;" horiz-adv-x="778" d="M261 164Q284 141 315 128T389 115Q442 115 479 135T539 190T572 266T583 354Q583 390 577 424T556 490L261 164ZM519 548Q496 571 464 585T389 599Q336 599 299 579T239 524T206 445T195 354Q195 319 201 285T223 219L519 548ZM120 105Q79 155 59 218T38 354Q38 433 62 502T131 622T241 702T389 731Q458 731 514 711T614 654L694 743L744 699L660 606Q699 556 719 492T740 354Q740 277 716 209T647 91T537 12T389 -17Q320 -17 264 3T166 59L83 -33L34 10L120 105Z"  />
<glyph unicode="&#xD9;" horiz-adv-x="741" d="M675 270Q675 125 594 54T370 -17Q225 -17 146 53T66 270V714H223V270Q223 241 228 213T249 163T293 128T370 115Q454 115 486 152T518 270V714H675V270ZM173 921H330L426 779H327L173 921Z"  />
<glyph unicode="&#xDA;" horiz-adv-x="741" d="M675 270Q675 125 594 54T370 -17Q225 -17 146 53T66 270V714H223V270Q223 241 228 213T249 163T293 128T370 115Q454 115 486 152T518 270V714H675V270ZM414 779H315L411 921H568L414 779Z"  />
<glyph unicode="&#xDB;" horiz-adv-x="741" d="M675 270Q675 125 594 54T370 -17Q225 -17 146 53T66 270V714H223V270Q223 241 228 213T249 163T293 128T370 115Q454 115 486 152T518 270V714H675V270ZM308 921H438L548 779H431L369 860L305 779H197L308 921Z"  />
<glyph unicode="&#xDC;" horiz-adv-x="741" d="M675 270Q675 125 594 54T370 -17Q225 -17 146 53T66 270V714H223V270Q223 241 228 213T249 163T293 128T370 115Q454 115 486 152T518 270V714H675V270ZM200 905H335V788H200V905ZM406 905H541V788H406V905Z"  />
<glyph unicode="&#xDD;" horiz-adv-x="667" d="M254 278L-9 714H168L335 432L501 714H676L411 274V0H254V278ZM380 779H281L377 921H534L380 779Z"  />
<glyph unicode="&#xDE;" horiz-adv-x="667" d="M226 281H348Q375 281 400 285T444 300T474 333T486 388Q486 422 475 443T444 475T400 491T348 495H226V281ZM69 714H226V617H391Q458 617 505 598T581 546T624 473T638 388Q638 344 625 303T582 230T505 179T391 159H226V0H69V714Z"  />
<glyph unicode="&#xDF;" horiz-adv-x="611" d="M56 491Q56 533 64 575T98 652T170 709T291 731Q336 731 377 720T449 685T499 625T518 539Q518 492 493 453T425 400V398Q458 391 482 374T522 334T547 281T555 219Q555 172 539 130T494 56T426 5T338 -14Q296 -14 256 -8V108Q266 105 276 104T297 103Q322 103 343 112T380 138T404 177T413 224Q413 278 384 312T291 346Q283 346 274 346T256 344V438Q262 437 267 437T278 436Q298 436 317 441T350 457T374 485T383 525Q383 556 372 574T346 601T315 612T287 614Q244 614 221 588T198 516V0H56V491Z"  />
<glyph unicode="&#xE0;" horiz-adv-x="574" d="M48 358Q51 408 73 441T129 494T205 522T291 531Q330 531 370 526T443 504T497 459T518 384V115Q518 80 522 48T536 0H392Q388 12 386 24T382 50Q348 15 302 1T208 -14Q171 -14 139 -5T83 24T46 72T32 141Q32 185 47 213T87 259T143 284T208 298T271 306T324 315T362 332T376 366Q376 389 369 402T349 423T320 433T284 436Q243 436 219 418T190 358H48ZM376 253Q367 245 354 241T325 233T292 228T258 223Q241 220 226 215T200 202T181 180T174 147Q174 127 181 115T200 95T228 84T261 81Q303 81 326 95T360 128T373 168T376 200V253ZM128 731H285L381 589H282L128 731Z"  />
<glyph unicode="&#xE1;" horiz-adv-x="574" d="M48 358Q51 408 73 441T129 494T205 522T291 531Q330 531 370 526T443 504T497 459T518 384V115Q518 80 522 48T536 0H392Q388 12 386 24T382 50Q348 15 302 1T208 -14Q171 -14 139 -5T83 24T46 72T32 141Q32 185 47 213T87 259T143 284T208 298T271 306T324 315T362 332T376 366Q376 389 369 402T349 423T320 433T284 436Q243 436 219 418T190 358H48ZM376 253Q367 245 354 241T325 233T292 228T258 223Q241 220 226 215T200 202T181 180T174 147Q174 127 181 115T200 95T228 84T261 81Q303 81 326 95T360 128T373 168T376 200V253ZM327 589H228L324 731H481L327 589Z"  />
<glyph unicode="&#xE2;" horiz-adv-x="574" d="M48 358Q51 408 73 441T129 494T205 522T291 531Q330 531 370 526T443 504T497 459T518 384V115Q518 80 522 48T536 0H392Q388 12 386 24T382 50Q348 15 302 1T208 -14Q171 -14 139 -5T83 24T46 72T32 141Q32 185 47 213T87 259T143 284T208 298T271 306T324 315T362 332T376 366Q376 389 369 402T349 423T320 433T284 436Q243 436 219 418T190 358H48ZM376 253Q367 245 354 241T325 233T292 228T258 223Q241 220 226 215T200 202T181 180T174 147Q174 127 181 115T200 95T228 84T261 81Q303 81 326 95T360 128T373 168T376 200V253ZM228 731H358L468 589H351L289 670L225 589H117L228 731Z"  />
<glyph unicode="&#xE3;" horiz-adv-x="574" d="M48 358Q51 408 73 441T129 494T205 522T291 531Q330 531 370 526T443 504T497 459T518 384V115Q518 80 522 48T536 0H392Q388 12 386 24T382 50Q348 15 302 1T208 -14Q171 -14 139 -5T83 24T46 72T32 141Q32 185 47 213T87 259T143 284T208 298T271 306T324 315T362 332T376 366Q376 389 369 402T349 423T320 433T284 436Q243 436 219 418T190 358H48ZM376 253Q367 245 354 241T325 233T292 228T258 223Q241 220 226 215T200 202T181 180T174 147Q174 127 181 115T200 95T228 84T261 81Q303 81 326 95T360 128T373 168T376 200V253ZM475 721Q471 698 464 680T445 645T414 618T363 607Q344 607 329 610T282 624Q257 632 243 636T214 641Q195 641 185 630T169 599H108Q112 622 120 643T142 681T179 710T225 721Q240 721 255 718T297 703Q314 697 330 692T362 686Q380 686 390 693T406 721H475Z"  />
<glyph unicode="&#xE4;" horiz-adv-x="574" d="M48 358Q51 408 73 441T129 494T205 522T291 531Q330 531 370 526T443 504T497 459T518 384V115Q518 80 522 48T536 0H392Q388 12 386 24T382 50Q348 15 302 1T208 -14Q171 -14 139 -5T83 24T46 72T32 141Q32 185 47 213T87 259T143 284T208 298T271 306T324 315T362 332T376 366Q376 389 369 402T349 423T320 433T284 436Q243 436 219 418T190 358H48ZM376 253Q367 245 354 241T325 233T292 228T258 223Q241 220 226 215T200 202T181 180T174 147Q174 127 181 115T200 95T228 84T261 81Q303 81 326 95T360 128T373 168T376 200V253ZM122 715H257V598H122V715ZM328 715H463V598H328V715Z"  />
<glyph unicode="&#xE5;" horiz-adv-x="574" d="M48 358Q51 408 73 441T129 494T205 522T291 531Q330 531 370 526T443 504T497 459T518 384V115Q518 80 522 48T536 0H392Q388 12 386 24T382 50Q348 15 302 1T208 -14Q171 -14 139 -5T83 24T46 72T32 141Q32 185 47 213T87 259T143 284T208 298T271 306T324 315T362 332T376 366Q376 389 369 402T349 423T320 433T284 436Q243 436 219 418T190 358H48ZM376 253Q367 245 354 241T325 233T292 228T258 223Q241 220 226 215T200 202T181 180T174 147Q174 127 181 115T200 95T228 84T261 81Q303 81 326 95T360 128T373 168T376 200V253ZM169 684Q169 709 178 731T204 770T243 796T291 806Q316 806 338 797T378 771T404 732T414 684Q414 659 405 637T378 598T339 572T291 563Q266 563 244 572T205 597T179 636T169 684ZM228 684Q228 655 245 636T291 616Q320 616 337 635T355 684Q355 713 338 732T291 752Q262 752 245 733T228 684Z"  />
<glyph unicode="&#xE6;" horiz-adv-x="907" d="M736 314Q736 338 729 360T708 399T673 426T625 436Q598 436 577 426T540 399T517 360T509 314H736ZM509 224Q508 198 516 173T540 127T579 94T632 81Q679 81 703 102T735 162H873Q862 121 840 88T786 33T716 -2T635 -14Q579 -14 527 6T442 74Q424 50 400 34T348 7T290 -9T231 -14Q194 -14 160 -6T98 20T55 67T38 140Q38 184 53 212T92 258T148 284T211 298Q256 305 289 309T343 321T375 339T385 370Q385 390 377 403T356 423T327 433T293 436Q252 436 224 419T194 356H52Q54 405 75 438T130 492T207 522T296 531Q318 531 342 528T390 516T433 495T467 461Q497 496 537 513T640 531Q705 531 750 506T823 438T865 340T878 224H509ZM385 252Q375 244 361 239T331 231T297 226T263 220T232 213T206 200T187 180T180 148Q180 128 187 116T207 95T236 84T268 81Q287 81 308 87T346 106T374 139T385 188V252Z"  />
<glyph unicode="&#xE7;" horiz-adv-x="574" d="M193 -147Q209 -154 230 -159T277 -165Q295 -165 306 -157T317 -131Q317 -112 306 -106T277 -99Q256 -99 237 -106L216 -82L266 -12Q226 -8 192 5Q144 25 110 60T57 144T38 251Q38 311 55 362T107 451T190 510T302 531Q348 531 390 519T466 483T520 421T545 335H406Q392 424 301 424Q267 424 244 409T207 369T186 314T180 256Q180 228 186 199T205 147T242 108T298 93Q348 93 376 121T411 198H548Q534 95 468 40Q407 -10 313 -14L285 -52L286 -54Q304 -47 321 -47Q338 -47 354 -51T384 -63T405 -85T413 -117Q413 -146 403 -165T376 -196T339 -212T296 -217Q272 -217 255 -216T225 -211T199 -204T172 -195L193 -147Z"  />
<glyph unicode="&#xE8;" horiz-adv-x="574" d="M402 314Q392 368 367 396T289 424Q255 424 233 413T197 384T178 348T171 314H402ZM171 224Q174 156 206 125T298 93Q341 93 372 114T410 160H535Q505 68 443 27T293 -14Q232 -14 183 6T100 62T48 148T29 258Q29 316 48 366T102 452T185 510T293 531Q359 531 408 506T488 437T534 339T544 224H171ZM104 731H261L357 589H258L104 731Z"  />
<glyph unicode="&#xE9;" horiz-adv-x="574" d="M402 314Q392 368 367 396T289 424Q255 424 233 413T197 384T178 348T171 314H402ZM171 224Q174 156 206 125T298 93Q341 93 372 114T410 160H535Q505 68 443 27T293 -14Q232 -14 183 6T100 62T48 148T29 258Q29 316 48 366T102 452T185 510T293 531Q359 531 408 506T488 437T534 339T544 224H171ZM338 589H239L335 731H492L338 589Z"  />
<glyph unicode="&#xEA;" horiz-adv-x="574" d="M402 314Q392 368 367 396T289 424Q255 424 233 413T197 384T178 348T171 314H402ZM171 224Q174 156 206 125T298 93Q341 93 372 114T410 160H535Q505 68 443 27T293 -14Q232 -14 183 6T100 62T48 148T29 258Q29 316 48 366T102 452T185 510T293 531Q359 531 408 506T488 437T534 339T544 224H171ZM229 731H359L469 589H352L290 670L226 589H118L229 731Z"  />
<glyph unicode="&#xEB;" horiz-adv-x="574" d="M402 314Q392 368 367 396T289 424Q255 424 233 413T197 384T178 348T171 314H402ZM171 224Q174 156 206 125T298 93Q341 93 372 114T410 160H535Q505 68 443 27T293 -14Q232 -14 183 6T100 62T48 148T29 258Q29 316 48 366T102 452T185 510T293 531Q359 531 408 506T488 437T534 339T544 224H171ZM122 715H257V598H122V715ZM328 715H463V598H328V715Z"  />
<glyph unicode="&#xEC;" horiz-adv-x="258" d="M58 517H200V0H58V517ZM-51 731H106L202 589H103L-51 731Z"  />
<glyph unicode="&#xED;" horiz-adv-x="258" d="M58 517H200V0H58V517ZM157 589H58L154 731H311L157 589Z"  />
<glyph unicode="&#xEE;" horiz-adv-x="258" d="M58 517H200V0H58V517ZM67 731H197L307 589H190L128 670L64 589H-44L67 731Z"  />
<glyph unicode="&#xEF;" horiz-adv-x="258" d="M58 517H200V0H58V517ZM-41 715H94V598H-41V715ZM165 715H300V598H165V715Z"  />
<glyph unicode="&#xF0;" horiz-adv-x="611" d="M240 647Q196 678 156 697L248 766Q302 736 347 700L470 762L522 703L408 646Q488 569 531 479T573 273Q573 211 554 159T500 68T416 8T305 -14Q244 -14 195 5T111 59T57 142T38 247Q38 293 51 339T93 423T164 483T268 506Q297 506 332 498T403 466H405Q387 508 358 539T303 593L191 537L133 593L240 647ZM305 93Q341 93 365 107T404 144T425 197T431 258Q431 286 424 313T402 362T363 397T304 411Q269 411 246 398T208 362T187 313T180 258Q180 227 186 198T206 145T245 107T305 93Z"  />
<glyph unicode="&#xF1;" horiz-adv-x="593" d="M54 517H189V445H192Q219 489 262 510T350 531Q407 531 443 516T501 473T530 406T539 318V0H397V292Q397 356 377 387T306 419Q248 419 222 385T196 271V0H54V517ZM481 721Q477 698 470 680T451 645T420 618T369 607Q350 607 335 610T288 624Q263 632 249 636T220 641Q201 641 191 630T175 599H114Q118 622 126 643T148 681T185 710T231 721Q246 721 261 718T303 703Q320 697 336 692T368 686Q386 686 396 693T412 721H481Z"  />
<glyph unicode="&#xF2;" horiz-adv-x="611" d="M180 258Q180 227 186 198T206 145T245 107T305 93Q341 93 365 107T404 144T425 197T431 258Q431 289 425 319T405 372T366 409T305 424Q269 424 245 410T207 372T186 319T180 258ZM38 258Q38 320 57 370T111 456T195 511T305 531Q366 531 415 512T500 457T554 371T573 258Q573 196 554 146T500 61T416 6T305 -14Q244 -14 195 5T111 60T57 146T38 258ZM105 731H262L358 589H259L105 731Z"  />
<glyph unicode="&#xF3;" horiz-adv-x="611" d="M180 258Q180 227 186 198T206 145T245 107T305 93Q341 93 365 107T404 144T425 197T431 258Q431 289 425 319T405 372T366 409T305 424Q269 424 245 410T207 372T186 319T180 258ZM38 258Q38 320 57 370T111 456T195 511T305 531Q366 531 415 512T500 457T554 371T573 258Q573 196 554 146T500 61T416 6T305 -14Q244 -14 195 5T111 60T57 146T38 258ZM350 589H251L347 731H504L350 589Z"  />
<glyph unicode="&#xF4;" horiz-adv-x="611" d="M180 258Q180 227 186 198T206 145T245 107T305 93Q341 93 365 107T404 144T425 197T431 258Q431 289 425 319T405 372T366 409T305 424Q269 424 245 410T207 372T186 319T180 258ZM38 258Q38 320 57 370T111 456T195 511T305 531Q366 531 415 512T500 457T554 371T573 258Q573 196 554 146T500 61T416 6T305 -14Q244 -14 195 5T111 60T57 146T38 258ZM243 731H373L483 589H366L304 670L240 589H132L243 731Z"  />
<glyph unicode="&#xF5;" horiz-adv-x="611" d="M180 258Q180 227 186 198T206 145T245 107T305 93Q341 93 365 107T404 144T425 197T431 258Q431 289 425 319T405 372T366 409T305 424Q269 424 245 410T207 372T186 319T180 258ZM38 258Q38 320 57 370T111 456T195 511T305 531Q366 531 415 512T500 457T554 371T573 258Q573 196 554 146T500 61T416 6T305 -14Q244 -14 195 5T111 60T57 146T38 258ZM490 721Q486 698 479 680T460 645T429 618T378 607Q359 607 344 610T297 624Q272 632 258 636T229 641Q210 641 200 630T184 599H123Q127 622 135 643T157 681T194 710T240 721Q255 721 270 718T312 703Q329 697 345 692T377 686Q395 686 405 693T421 721H490Z"  />
<glyph unicode="&#xF6;" horiz-adv-x="611" d="M180 258Q180 227 186 198T206 145T245 107T305 93Q341 93 365 107T404 144T425 197T431 258Q431 289 425 319T405 372T366 409T305 424Q269 424 245 410T207 372T186 319T180 258ZM38 258Q38 320 57 370T111 456T195 511T305 531Q366 531 415 512T500 457T554 371T573 258Q573 196 554 146T500 61T416 6T305 -14Q244 -14 195 5T111 60T57 146T38 258ZM136 715H271V598H136V715ZM342 715H477V598H342V715Z"  />
<glyph unicode="&#xF7;" horiz-adv-x="600" d="M216 45Q216 63 223 78T241 104T268 122T301 129Q335 129 360 105T385 45Q385 29 378 14T360 -13T334 -32T302 -40Q284 -40 269 -33T242 -15T223 12T216 45ZM216 460Q216 478 223 493T241 520T268 538T301 545Q335 545 360 520T385 460Q385 444 378 429T360 402T334 383T302 376Q284 376 269 382T242 400T223 427T216 460ZM48 306H553V199H48V306Z"  />
<glyph unicode="&#xF8;" horiz-adv-x="611" d="M104 69Q38 141 38 258Q38 320 57 370T111 456T195 511T305 531Q400 531 468 483L521 544L558 512L504 451Q537 416 555 367T573 258Q573 196 554 146T500 61T416 6T305 -14Q208 -14 140 36L81 -31L44 1L104 69ZM220 127Q234 111 255 102T305 93Q341 93 365 107T404 144T425 197T431 258Q431 282 427 305T415 349L220 127ZM388 392Q358 424 305 424Q269 424 245 410T207 372T186 319T180 258Q180 235 183 213T195 172L388 392Z"  />
<glyph unicode="&#xF9;" horiz-adv-x="593" d="M539 0H404V72H401Q374 28 331 7T243 -14Q186 -14 150 1T92 44T63 111T54 199V517H196V225Q196 161 216 130T287 98Q345 98 371 132T397 246V517H539V0ZM97 731H254L350 589H251L97 731Z"  />
<glyph unicode="&#xFA;" horiz-adv-x="593" d="M539 0H404V72H401Q374 28 331 7T243 -14Q186 -14 150 1T92 44T63 111T54 199V517H196V225Q196 161 216 130T287 98Q345 98 371 132T397 246V517H539V0ZM341 589H242L338 731H495L341 589Z"  />
<glyph unicode="&#xFB;" horiz-adv-x="593" d="M539 0H404V72H401Q374 28 331 7T243 -14Q186 -14 150 1T92 44T63 111T54 199V517H196V225Q196 161 216 130T287 98Q345 98 371 132T397 246V517H539V0ZM234 731H364L474 589H357L295 670L231 589H123L234 731Z"  />
<glyph unicode="&#xFC;" horiz-adv-x="593" d="M539 0H404V72H401Q374 28 331 7T243 -14Q186 -14 150 1T92 44T63 111T54 199V517H196V225Q196 161 216 130T287 98Q345 98 371 132T397 246V517H539V0ZM128 715H263V598H128V715ZM334 715H469V598H334V715Z"  />
<glyph unicode="&#xFD;" horiz-adv-x="519" d="M309 -65Q286 -127 245 -154T131 -182Q109 -182 88 -181T44 -177V-60Q64 -62 85 -64T127 -65Q145 -63 157 -54T176 -30T182 0Q182 17 176 32L-6 517H146L263 163H265L378 517H525L309 -65ZM310 589H211L307 731H464L310 589Z"  />
<glyph unicode="&#xFE;" horiz-adv-x="611" d="M438 257Q438 288 432 318T410 371T372 409T314 424Q279 424 256 410T218 372T197 319T191 257Q191 225 197 196T218 144T256 107T315 93Q350 93 373 107T411 143T432 195T438 257ZM54 714H196V451H198Q224 493 263 512T345 531Q406 531 450 508T523 447T566 359T580 253Q580 201 566 153T524 68T453 9T353 -14Q306 -14 265 6T198 64H196V-182H54V714Z"  />
<glyph unicode="&#xFF;" horiz-adv-x="519" d="M309 -65Q286 -127 245 -154T131 -182Q109 -182 88 -181T44 -177V-60Q64 -62 85 -64T127 -65Q145 -63 157 -54T176 -30T182 0Q182 17 176 32L-6 517H146L263 163H265L378 517H525L309 -65ZM94 715H229V598H94V715ZM300 715H435V598H300V715Z"  />
<glyph unicode="&#x131;" horiz-adv-x="258" d="M58 517H200V0H58V517Z"  />
<glyph unicode="&#x152;" horiz-adv-x="1093" d="M538 448Q538 482 527 509T495 557T446 588T384 599Q332 599 296 578T238 522T205 444T195 355Q195 311 205 268T237 191T295 136T381 115Q453 115 495 160T538 278V448ZM544 54H542Q510 19 464 1T370 -17Q291 -17 229 13T125 94T60 212T38 353Q38 427 60 495T126 616T231 700T373 731Q396 731 420 728T466 716T507 695T542 663H544V714H1044V582H690V429H1014V307H690V132H1051V0H544V54Z"  />
<glyph unicode="&#x153;" horiz-adv-x="926" d="M528 224Q528 168 558 131T651 93Q690 93 715 111T755 164H893Q868 79 804 33T651 -14Q597 -14 546 6T464 74Q450 50 430 34T385 7T334 -9T281 -14Q221 -14 176 8T100 68T54 156T38 261Q38 318 56 367T107 453T187 510T292 531Q317 531 343 527T392 513T436 487T470 449Q483 469 503 484T546 509T595 525T643 531Q712 531 760 506T838 439T883 342T897 224H528ZM290 93Q326 93 348 108T382 148T399 202T404 260Q404 286 400 315T384 368T351 408T293 424Q260 424 239 409T204 370T186 316T180 256Q180 229 185 201T203 148T237 109T290 93ZM755 314Q753 364 725 394T640 424Q586 424 558 392T528 314H755Z"  />
<glyph unicode="&#x160;" horiz-adv-x="649" d="M176 237Q176 201 189 176T223 136T273 113T334 105Q355 105 379 108T424 122T459 149T473 194Q473 223 455 241T406 271T338 292T261 312Q221 322 183 336T115 374T67 431T48 515Q48 570 71 610T133 678T219 718T315 731Q371 731 422 719T514 678T577 607T601 501H449Q447 533 436 554T405 587T361 604T308 609Q289 609 270 605T236 591T210 566T200 528Q200 507 208 494T239 471T304 449T413 420Q426 417 447 412T491 397T538 372T581 335T613 283T625 212Q625 163 606 121T550 49T457 1T328 -17Q269 -17 214 -2T116 44T49 123T24 237H176ZM393 779H263L152 921H264L328 840L393 921H503L393 779Z"  />
<glyph unicode="&#x161;" horiz-adv-x="537" d="M164 168Q164 145 173 129T198 102T232 86T273 81Q288 81 304 84T334 95T357 115T366 147Q366 163 355 174T324 195T273 211T205 227Q174 234 145 243T92 268T55 307T41 365Q41 414 60 446T112 497T184 523T266 531Q308 531 347 523T418 496T469 446T494 366H359Q356 407 328 421T262 436Q250 436 236 435T211 428T191 414T183 388Q183 369 197 357T233 338T285 324T344 311Q375 304 404 294T457 268T494 227T508 166Q508 115 488 81T434 25T359 -5T272 -14Q227 -14 184 -5T108 25T53 82T29 168H164ZM339 589H209L98 731H210L274 650L339 731H449L339 589Z"  />
<glyph unicode="&#x178;" horiz-adv-x="667" d="M254 278L-9 714H168L335 432L501 714H676L411 274V0H254V278ZM165 905H300V788H165V905ZM371 905H506V788H371V905Z"  />
<glyph unicode="&#x17D;" horiz-adv-x="648" d="M23 124L406 582H53V714H615V590L232 132H625V0H23V124ZM397 779H267L156 921H268L332 840L397 921H507L397 779Z"  />
<glyph unicode="&#x17E;" horiz-adv-x="519" d="M22 107L291 410H42V517H478V410L209 107H497V0H22V107ZM328 589H198L87 731H199L263 650L328 731H438L328 589Z"  />
<glyph unicode="&#x192;" d="M14 -60Q33 -63 54 -63Q92 -64 106 -46T126 8L189 337H97L115 432H206L230 559Q239 606 254 639T293 692T352 722T436 731Q476 731 511 724L493 617Q482 622 473 623T453 624Q414 624 399 609T377 562L352 432H450L434 337H334L278 27Q269 -23 256 -60T220 -121T161 -158T69 -170Q50 -170 33 -170T-5 -167L14 -60Z"  />
<glyph unicode="&#x2C6;" horiz-adv-x="259" d="M65 731H195L305 589H188L126 670L62 589H-46L65 731Z"  />
<glyph unicode="&#x2C7;" horiz-adv-x="259" d="M195 589H65L-46 731H66L130 650L195 731H305L195 589Z"  />
<glyph unicode="&#x2DA;" horiz-adv-x="259" d="M7 684Q7 709 16 731T42 770T81 796T129 806Q154 806 176 797T216 771T242 732T252 684Q252 659 243 637T216 598T177 572T129 563Q104 563 82 572T43 597T17 636T7 684ZM66 684Q66 655 83 636T129 616Q158 616 175 635T193 684Q193 713 176 732T129 752Q100 752 83 733T66 684Z"  />
<glyph unicode="&#x2DC;" horiz-adv-x="259" d="M313 721Q309 698 302 680T283 645T252 618T201 607Q182 607 167 610T120 624Q95 632 81 636T52 641Q33 641 23 630T7 599H-54Q-50 622 -42 643T-20 681T17 710T63 721Q78 721 93 718T135 703Q152 697 168 692T200 686Q218 686 228 693T244 721H313Z"  />
<glyph unicode="&#x2013;" horiz-adv-x="500" d="M0 334H500V212H0V334Z"  />
<glyph unicode="&#x2014;" horiz-adv-x="1000" d="M130 334H870V212H130V334Z"  />
<glyph unicode="&#x2018;" horiz-adv-x="278" d="M210 393H68V546Q67 579 77 608T107 659T152 695T210 714V648Q172 635 158 610T144 547H210V393Z"  />
<glyph unicode="&#x2019;" horiz-adv-x="278" d="M68 714H210V561Q211 528 201 499T171 448T126 412T68 393V459Q106 472 120 497T134 560H68V714Z"  />
<glyph unicode="&#x201A;" horiz-adv-x="278" d="M68 154H210V1Q211 -32 201 -61T171 -112T126 -148T68 -167V-101Q106 -88 120 -63T134 0H68V154Z"  />
<glyph unicode="&#x201C;" horiz-adv-x="463" d="M196 393H54V546Q53 579 63 608T93 659T138 695T196 714V648Q158 635 144 610T130 547H196V393ZM409 393H267V546Q266 579 276 608T306 659T351 695T409 714V648Q371 635 357 610T343 547H409V393Z"  />
<glyph unicode="&#x201D;" horiz-adv-x="463" d="M54 714H196V561Q197 528 187 499T157 448T112 412T54 393V459Q92 472 106 497T120 560H54V714ZM267 714H409V561Q410 528 400 499T370 448T325 412T267 393V459Q305 472 319 497T333 560H267V714Z"  />
<glyph unicode="&#x201E;" horiz-adv-x="463" d="M54 154H196V1Q197 -32 187 -61T157 -112T112 -148T54 -167V-101Q92 -88 106 -63T120 0H54V154ZM267 154H409V1Q410 -32 400 -61T370 -112T325 -148T267 -167V-101Q305 -88 319 -63T333 0H267V154Z"  />
<glyph unicode="&#x2020;" d="M210 400H24V517H210V714H345V517H532V400H345V-166H210V400Z"  />
<glyph unicode="&#x2021;" d="M210 27H24V144H210V400H24V517H210V714H345V517H532V400H345V144H532V27H345V-166H210V27Z"  />
<glyph unicode="&#x2022;" horiz-adv-x="501" d="M72 357Q72 394 86 426T124 483T180 521T250 535Q287 535 319 521T376 483T415 427T429 357Q429 320 415 288T377 231T320 192T250 178Q213 178 181 192T124 230T86 287T72 357Z"  />
<glyph unicode="&#x2026;" horiz-adv-x="1000" d="M754 154H911V0H754V154ZM421 154H578V0H421V154ZM88 154H245V0H88V154Z"  />
<glyph unicode="&#x2030;" horiz-adv-x="1147" d="M440 155Q440 190 448 222T474 278T520 316T587 330Q628 330 655 317T700 280T724 224T732 156Q732 120 724 89T698 35T653 -1T586 -14Q516 -14 478 33T440 155ZM564 722H649L237 -22H150L564 722ZM159 556Q159 535 160 513T167 474T184 446T215 435Q236 435 247 445T264 470T270 505T271 542Q271 561 270 580T264 615T248 639T217 649Q196 649 185 640T167 617T160 587T159 556ZM69 539Q69 574 77 606T103 662T149 700T216 714Q257 714 284 701T329 664T353 608T361 540Q361 504 353 473T327 419T282 383T215 370Q145 370 107 417T69 539ZM876 172Q876 151 877 129T884 90T901 62T932 51Q953 51 964 61T981 86T987 121T988 158Q988 177 987 196T981 231T965 255T934 265Q913 265 902 256T884 233T877 203T876 172ZM786 155Q786 190 794 222T820 278T866 316T933 330Q974 330 1001 317T1046 280T1070 224T1078 156Q1078 120 1070 89T1044 35T999 -1T932 -14Q862 -14 824 33T786 155ZM530 172Q530 151 531 129T538 90T555 62T586 51Q607 51 618 61T635 86T641 121T642 158Q642 177 641 196T635 231T619 255T588 265Q567 265 556 256T538 233T531 203T530 172Z"  />
<glyph unicode="&#x2039;" horiz-adv-x="241" d="M42 205V340L199 463V343L109 272L199 200V80L42 205Z"  />
<glyph unicode="&#x203A;" horiz-adv-x="241" d="M199 340V205L42 80V200L132 272L42 343V463L199 340Z"  />
<glyph unicode="&#x20AC;" d="M515 547Q444 592 384 592Q279 592 244 455H488L457 383H233L232 341H445L414 269H240Q272 111 388 111Q462 111 542 174L541 23Q473 -17 387 -17Q260 -17 184 65Q114 139 93 269H16L47 341H87Q87 357 87 367Q87 378 88 383H15L46 455H97Q121 576 196 646Q275 722 394 722Q479 722 576 672L515 547Z"  />
<glyph unicode="&#x2122;" horiz-adv-x="1000" d="M398 634H281V302H179V634H62V714H398V634ZM928 302H832V594H830L724 302H655L549 594H547V302H451V714H587L690 443L793 714H928V302Z"  />

</font>
</defs>
</svg>
